[bittorrent] gd1969-02-06.sbd.wise.sirmick.137394.sbeok.flac16 e

Automated Mailer noreply-bt.e at etree.org
Wed Dec 21 06:42:56 UTC 2016


Band:           Grateful Dead
Torrent Name:   gd1969-02-06.sbd.wise.sirmick.137394.sbeok.flac16 e
Uploaded by:    grateful darkstar
DB Link:        
Details:        http://bt.etree.org/details.php?id=590442

Contact the seeder at http://db.etree.org/grateful darkstar

If the link to this show does not work, it was probably removed for
being non-trade-friendly.

Description / text file:
-------------------------
Grateful Dead
Kiel Auditorium,
St Louis, MO
02/06/1969



Source: Soundboard > 7 1/2' Reel Master @ 7.5 ips (Recorded By Bear) > 1st gen cassette (Ampex C-90/no dolby) > Dat (from Rob Eaton)
Transfer: DAT play back and transfer on a Sony PCM R-500 > Digital Audio Labs Carddeluxe > WAV 16/48
Lineage: wav 16/48 > Adobe Audition 3.0.1 > iZotope RX4 Advanced > wav 16/44.1 > iZotope Ozone 5 Advanced > CD Wave > TLH > Flac16



01   //Morning Dew
02   tuning
03   Dark//Star >
04   St. Stephen >
05   The Eleven >
06   Turn On Your Love Light
07   crowd/tuning
08   Cryptical Envelopment >
09   The Other One >
10   Cryptical Envelopment// >
11   //Feedback >
12   We Bid You Goodnight
13   crowd/outro



Notes:

- DC offset removed
- Azimuth
- A number of partial dropouts repaired
- Pitch correction (Jim Wise)



Thanks to Jim Wise for providing his copy of this show and for pitch correction


edited and mastered
SIRMick
December 2016


shntool output:

    length     expanded size    cdr  WAVE problems  fmt   ratio  filename
     8:48.46       93247436 B   ---   --   ---xx   flac  0.5155  gd1969-02-06t01.flac
     1:11.09       12545612 B   ---   --   ---xx   flac  0.4588  gd1969-02-06t02.flac
    14:01.66      148507676 B   ---   --   ---xx   flac  0.5076  gd1969-02-06t03.flac
     6:26.17       68130428 B   ---   --   ---xx   flac  0.5242  gd1969-02-06t04.flac
    10:54.26      115426796 B   ---   --   ---xx   flac  0.5391  gd1969-02-06t05.flac
    19:34.27      207157148 B   ---   --   ---xx   flac  0.5213  gd1969-02-06t06.flac
     3:34.25       37808444 B   ---   --   ---xx   flac  0.4713  gd1969-02-06t07.flac
     2:11.62       23254268 B   ---   --   ---xx   flac  0.5011  gd1969-02-06t08.flac
     7:09.33       75753260 B   ---   --   ---xx   flac  0.5523  gd1969-02-06t09.flac
     7:47.00       82378844 B   ---   --   ---xx   flac  0.5444  gd1969-02-06t10.flac
     4:05.05       43229804 B   ---   --   ---xx   flac  0.5769  gd1969-02-06t11.flac
     1:41.56       17948156 B   ---   --   ---xx   flac  0.5397  gd1969-02-06t12.flac
     1:10.43       12449180 B   ---   --   ---xx   flac  0.5373  gd1969-02-06t13.flac
    88:36.40      937837052 B                            0.5253  (13 files)





More information about the bittorrent mailing list