[bittorrent] The Orange Constant Smith's Olde Bar Atlanta, Georgia 12/19/2016 (Schoeps CCM4V'S FOB)

Automated Mailer noreply-bt.e at etree.org
Tue Dec 20 05:02:36 UTC 2016


Band:           Other
Torrent Name:   The Orange Constant Smith's Olde Bar Atlanta, Georgia 12/19/2016 (Schoeps CCM4V'S FOB)
Uploaded by:    zmanatl
DB Link:        
Details:        http://bt.etree.org/details.php?id=590432

Contact the seeder at http://db.etree.org/zmanatl

If the link to this show does not work, it was probably removed for
being non-trade-friendly.

Description / text file:
-------------------------
The Orange Constant
Smith's Olde Bar
Atlanta, Georgia
12/18/2016 

Source: Schoeps CCM4V's>Lunatec V2>Benchmark AD2K>
Sound Devices 722 (24/44)
FOB/DFC/KFC/ZFC/AARP 17' From Stage, 7' High
DSP: Sound Devices 722>Sound Forge 10.0>CD Wave>flac(16)
ID3 Tagged In Foobar 2000
Recorded By: Z-Man
Seeded By: Z-Man

Disc I 

01 Ask Me To Jump 
02 Sir Martin
03 Breeze
04 Rescue By Request >
05 Fortunate
06 Point Of Reference
07 Starting To Show >
08 Red Ryder >
09 Cause I'm A Man 
10 Fadin' The Line >
11 Good Intention 
12 Shade

theorange2016-12-19d01t01.flac:732e863e2b8a1c0a9cef63b136b5d008
theorange2016-12-19d01t02.flac:bc7d75effc3901ae20b297d0f3a5e855
theorange2016-12-19d01t03.flac:27d7657ce14cb3d8d9433a4e03c19ae4
theorange2016-12-19d01t04.flac:fd9ee72e5010d32d6e913d3f8882ff67
theorange2016-12-19d01t05.flac:40f563dce2ab1c9e215a41cbae7513c4
theorange2016-12-19d01t06.flac:e06dca25e4d45a80bc42a853b4cfbdcc
theorange2016-12-19d01t07.flac:2ce163eead7d080584e5f2bdd3a0a70c
theorange2016-12-19d01t08.flac:1c1cbf238e8b75dc3eddf8530d94dc33
theorange2016-12-19d01t09.flac:7d2ff537d6eb842d1819a7823a54c96c
theorange2016-12-19d01t10.flac:cd7db748767a50527e7e3d6e8a90cc91
theorange2016-12-19d01t11.flac:f342ecd44773620b27266593210fb74c
theorange2016-12-19d01t12.flac:f81162881cf2818a00aa5cd30a9cbf79

length     expanded size    cdr  WAVE problems  fmt   ratio  filename
     6:33.26       69386396 B   ---   --   ---xx   flac  0.4274  theorange2016-12-19d01t01.flac
     5:15.15       55601324 B   ---   --   ---xx   flac  0.4378  theorange2016-12-19d01t02.flac
     5:50.49       61855292 B   ---   --   ---xx   flac  0.4206  theorange2016-12-19d01t03.flac
     8:35.65       90998924 B   ---   --   ---xx   flac  0.4338  theorange2016-12-19d01t04.flac
     4:34.45       48439484 B   ---   --   ---xx   flac  0.4326  theorange2016-12-19d01t05.flac
     6:37.53       70155500 B   ---   --   ---xx   flac  0.4306  theorange2016-12-19d01t06.flac
     3:59.55       42289004 B   ---   --   ---xx   flac  0.4267  theorange2016-12-19d01t07.flac
     6:14.68       66133580 B   ---   --   ---xx   flac  0.4432  theorange2016-12-19d01t08.flac
     4:08.53       43871900 B   ---   --   ---xx   flac  0.4366  theorange2016-12-19d01t09.flac
     6:28.63       68591420 B   ---   --   ---xx   flac  0.4909  theorange2016-12-19d01t10.flac
     6:53.46       72961436 B   ---   --   ---xx   flac  0.4539  theorange2016-12-19d01t11.flac
     6:29.58       68756060 B   ---   --   ---xx   flac  0.4487  theorange2016-12-19d01t12.flac
    71:42.71      759040320 B                            0.4411  (12 files)


























More information about the bittorrent mailing list