[bittorrent] The Pussywillows T-Dawgs Holiday Hootenanny Terminal West Atlanta, Georgia 12/18/2016 (Schoeps CCM4V'S FOB)

Automated Mailer noreply-bt.e at etree.org
Mon Dec 19 23:23:50 UTC 2016


Band:           Other
Torrent Name:   The Pussywillows T-Dawgs Holiday Hootenanny Terminal West Atlanta, Georgia 12/18/2016 (Schoeps CCM4V'S FOB)
Uploaded by:    zmanatl
DB Link:        
Details:        http://bt.etree.org/details.php?id=590431

Contact the seeder at http://db.etree.org/zmanatl

If the link to this show does not work, it was probably removed for
being non-trade-friendly.

Description / text file:
-------------------------
The Pussywillows
T-Dawgs Holiday Hootenanny
Terminal West
Atlanta, Georgia
12/18/2016 

Source: Schoeps CCM4V's>Lunatec V2>Benchmark AD2K>
Sound Devices 722 (24/44)
FOB/DFC/KFC/ZFC/AARP 35' From Stage, 7' High
DSP: Sound Devices 722>Sound Forge 10.0>CD Wave>flac(16)
ID3 Tagged In Foobar 2000
Recorded By: Z-Man
Seeded By: Z-Man

Disc I 

01 Wildman Steve Introduction
02 Too Bad
03 Talk
04 If I Decide
05 Straight On For You
06 In Another Life
07 ?
08 ?
09 I Won't Cry
10 Cavity 
11 Nothing At All
12 Wildman Steve Outro

thepussy2016-12-18d01t01.flac:cb878c00918f6d9144d6b01c1e4aa339
thepussy2016-12-18d01t02.flac:980c0b8fec283c7da1e0c435fa1e0d62
thepussy2016-12-18d01t03.flac:8c4616e131568553aae23a0013a9be88
thepussy2016-12-18d01t04.flac:91cfe6fe642e46341c04c02fd9b31e53
thepussy2016-12-18d01t05.flac:bf534927a0413f632a950a99908a5316
thepussy2016-12-18d01t06.flac:07ec951ae3b720b43face36b6f4cef6b
thepussy2016-12-18d01t07.flac:cfd84831182e542f2c8fee6acab075df
thepussy2016-12-18d01t08.flac:e6873ba7a1c344e0f7702f8cbc178b78
thepussy2016-12-18d01t09.flac:7101ac2a9fa21416a8d9043ef7926748
thepussy2016-12-18d01t10.flac:ecbde39637123bc4f57dc662d57097ea
thepussy2016-12-18d01t11.flac:b5247133c69f02fc694f5732be783c7f
thepussy2016-12-18d01t12.flac:8abbcc1c8c118f2e10f732f9a9670b3a

 length     expanded size    cdr  WAVE problems  fmt   ratio  filename
     1:26.69       15332732 B   ---   --   ---xx   flac  0.3145  thepussy2016-12-18d01t01.flac
     3:46.07       39882908 B   ---   --   ---xx   flac  0.5007  thepussy2016-12-18d01t02.flac
     5:19.35       56353964 B   ---   --   ---xx   flac  0.4460  thepussy2016-12-18d01t03.flac
     5:22.26       56861996 B   ---   --   ---xx   flac  0.4310  thepussy2016-12-18d01t04.flac
     6:22.32       67460108 B   ---   --   ---xx   flac  0.4519  thepussy2016-12-18d01t05.flac
     7:53.47       83547788 B   ---   --   ---xx   flac  0.4059  thepussy2016-12-18d01t06.flac
     5:21.28       56690300 B   ---   --   ---xx   flac  0.3926  thepussy2016-12-18d01t07.flac
     4:24.42       46668428 B   ---   --   ---xx   flac  0.4518  thepussy2016-12-18d01t08.flac
     6:22.02       67389548 B   ---   --   ---xx   flac  0.4528  thepussy2016-12-18d01t09.flac
     4:47.33       50704460 B   ---   --   ---xx   flac  0.4568  thepussy2016-12-18d01t10.flac
     4:49.59       51118412 B   ---   --   ---xx   flac  0.4781  thepussy2016-12-18d01t11.flac
     3:03.49       32396492 B   ---   --   ---xx   flac  0.3307  thepussy2016-12-18d01t12.flac
    58:59.54      624407136 B                            0.4340  (12 files)




More information about the bittorrent mailing list