[bittorrent] Papa Mali And Friends T-Dawgs Holiday Hootenanny Terminal West Atlanta, Georgia 12/18/2016 (Schoeps CCM4V'S FOB)

Automated Mailer noreply-bt.e at etree.org
Mon Dec 19 20:22:21 UTC 2016


Band:           Papa Mali
Torrent Name:   Papa Mali And Friends T-Dawgs Holiday Hootenanny Terminal West Atlanta, Georgia 12/18/2016 (Schoeps CCM4V'S FOB)
Uploaded by:    zmanatl
DB Link:        
Details:        http://bt.etree.org/details.php?id=590428

Contact the seeder at http://db.etree.org/zmanatl

If the link to this show does not work, it was probably removed for
being non-trade-friendly.

Description / text file:
-------------------------
Papa Mali And Friends
T-Dawgs Holiday Hootenanny
Terminal West
Atlanta, Georgia
12/18/2016 

Source: Schoeps CCM4V's>Lunatec V2>Benchmark AD2K>
Sound Devices 722 (24/44)
FOB/DFC/KFC/ZFC/AARP 35' From Stage, 7' High
DSP: Sound Devices 722>Sound Forge 10.0>CD Wave>flac(16)
ID3 Tagged In Foobar 2000
Recorded By: Z-Man
Seeded By: Z-Man

Disc I 

01 Wildman Steve Introduction
02 Straight To Hell
03 Lonesome Road >
04 ?
05 Early In The Morning
06 Band Introductions
07 I'm A Ram >
08 *Turn On Your Lovelight
09 Banter
10 #Ripple
11 Wildman Steve Outro

* With Col. Bruce Hampton On Vocals
# With Jim Lauderdale On Guitar, Bobby Miller On Mandolin And Vocals, 
  Bill Flemming On Pedal Steel Guitar, And Kevn Kinney On Guitar, 

Papa Mali - Guitar And Vocals
Kevin Scott - Bass
Kevin Thomas - Keyboards
Yonrico Scott - Drums
Ritchie Jones - Percussion
Guarev Malhotra - Percussion

papamali2016-12-18d01t01.flac:7cbf2f3f9c0c7dc0f547cfcf4a20bd10
papamali2016-12-18d01t02.flac:0d26daca722ba19afea30e5636f0e17c
papamali2016-12-18d01t03.flac:8f0b3ea81e08adaf82c7f68ae6777b8f
papamali2016-12-18d01t04.flac:af55a409f739207fb432fd04944b833b
papamali2016-12-18d01t05.flac:7b1c201598e0de58cc6ab79dfc1ec288
papamali2016-12-18d01t06.flac:b04158b2fbaeb08bbe9ae0cc2f882004
papamali2016-12-18d01t07.flac:81a8a70bd18fa8225ef26632ac52f567
papamali2016-12-18d01t08.flac:14aa54f7a2c6ea2b31602fb4cda51eb4
papamali2016-12-18d01t09.flac:3c5a7bf717829f45136b474365b557f0
papamali2016-12-18d01t10.flac:ce238ec25597d87be60ebe51237580a7
papamali2016-12-18d01t11.flac:d174468ed2384897dd79e9a771e663c7

length     expanded size    cdr  WAVE problems  fmt   ratio  filename
     3:49.17       40435628 B   ---   --   ---xx   flac  0.3303  papamali2016-12-18d01t01.flac
     8:43.62       92403068 B   ---   --   ---xx   flac  0.4853  papamali2016-12-18d01t02.flac
     7:47.23       82432940 B   ---   --   ---xx   flac  0.4937  papamali2016-12-18d01t03.flac
     6:23.25       67620044 B   ---   --   ---xx   flac  0.4952  papamali2016-12-18d01t04.flac
     7:00.55       74217404 B   ---   --   ---xx   flac  0.4670  papamali2016-12-18d01t05.flac
     2:00.43       21269180 B   ---   --   ---xx   flac  0.2952  papamali2016-12-18d01t06.flac
     8:00.31       84744956 B   ---   --   ---xx   flac  0.4902  papamali2016-12-18d01t07.flac
     5:11.09       54881612 B   ---   --   ---xx   flac  0.4698  papamali2016-12-18d01t08.flac
     3:44.21       39563036 B   ---   --   ---xx   flac  0.3007  papamali2016-12-18d01t09.flac
     6:53.38       72942620 B   ---   --   ---xx   flac  0.4197  papamali2016-12-18d01t10.flac
     2:27.19       25975532 B   ---   --   ---xx   flac  0.3683  papamali2016-12-18d01t11.flac
    62:01.43      656486020 B                            0.4459  (11 files)























More information about the bittorrent mailing list