[bittorrent] Jim Lauderdale And Friends T-Dawgs Holiday Hootenanny Terminal West Atlanta, Georgia 12/18/2016 (Schoeps CCM4V'S FOB)

Automated Mailer noreply-bt.e at etree.org
Mon Dec 19 18:33:07 UTC 2016


Band:           Other
Torrent Name:   Jim Lauderdale And Friends T-Dawgs Holiday Hootenanny Terminal West Atlanta, Georgia 12/18/2016 (Schoeps CCM4V'S FOB)
Uploaded by:    zmanatl
DB Link:        
Details:        http://bt.etree.org/details.php?id=590427

Contact the seeder at http://db.etree.org/zmanatl

If the link to this show does not work, it was probably removed for
being non-trade-friendly.

Description / text file:
-------------------------
Jim Lauderdale And Friends
T-Dawgs Holiday Hootenanny
Terminal West
Atlanta, Georgia
12/18/2016 

Source: Schoeps CCM4V's>Lunatec V2>Benchmark AD2K>
Sound Devices 722 (24/44)
FOB/DFC/KFC/ZFC/AARP 35' From Stage, 7' High
DSP: Sound Devices 722>Sound Forge 10.0>CD Wave>flac(16)
ID3 Tagged In Foobar 2000
Recorded By: Z-Man
Seeded By: Z-Man

Disc I 

01 Wildman Steve Introduction
02 *Life By Numbers
03 *Good Things
04 *?
05 *That's Not The Way It Works
06 *Tiger And The Monkey
07 *King Of Broken Hearts
08 ?
09 Drive
10 Soul Searchin'
11 #I Feel Like Singing Today
12 #Bucket Down
13 #@Jawbone
14 #Patchwork River
15 #Headed For The Hills
16 Wildman Steve Outro

* Jim Solo
# With Jeff Mosier On BanJo 
@ With Papa Mali On Guitar

Matt Williams - Guitar And Vocals
Kevin Scott - Bass
Kevin Thomas - Keyboards
Bobby Miller - Mandolin And Vocals
Jared Womack - Dobro
Ritchie Jones - Drums
Bill Fleming - Pedal Steel Guitar
Guarev Malhotra - Percussion

jim2016-12-18d01t01.flac:4fe468f77e2992f7f59c1e82028ff9cb
jim2016-12-18d01t02.flac:63097736c2255ec68129e1726b51da18
jim2016-12-18d01t03.flac:baee3fb9b1059d4e771a9444b5ff88c6
jim2016-12-18d01t04.flac:179b9ecd27a88607ce8699745209257f
jim2016-12-18d01t05.flac:8b68a209a5f27e657b790b9a7d6c40ad
jim2016-12-18d01t06.flac:122b78b042e568c457725fe63dbb521f
jim2016-12-18d01t07.flac:63e11f29ee168608e6546982a281572a
jim2016-12-18d01t08.flac:4215b3e09cd7742fb22220ddaa9af135
jim2016-12-18d01t09.flac:7e55e5abdea41385ec51c44150b56da4
jim2016-12-18d01t10.flac:3e6ceb3c2c62af1b60c449eccf8131eb
jim2016-12-18d01t11.flac:e6206c757fa25e48630824efced53ee3
jim2016-12-18d01t12.flac:33fbd5dab0d9612eb08fd5ace1f49f27
jim2016-12-18d01t13.flac:c59bde61243d7c50b3dc9c3b59737bb1
jim2016-12-18d01t14.flac:7ece2da829bedc73ec560cc4d880c5ab
jim2016-12-18d01t15.flac:e928ef45c967b96832bbf53ca9c44d7b
jim2016-12-18d01t16.flac:111138f076d1561f34c3e30efbf8cca0

length     expanded size    cdr  WAVE problems  fmt   ratio  filename
     1:16.02       13411148 B   ---   --   ---xx   flac  0.3395  jim2016-12-18d01t01.flac
     2:38.60       28012364 B   ---   --   ---xx   flac  0.4057  jim2016-12-18d01t02.flac
     3:19.01       35105996 B   ---   --   ---xx   flac  0.4093  jim2016-12-18d01t03.flac
     2:24.56       25533356 B   ---   --   ---xx   flac  0.4494  jim2016-12-18d01t04.flac
     4:29.20       47498684 B   ---   --   ---xx   flac  0.3829  jim2016-12-18d01t05.flac
     3:25.54       36289052 B   ---   --   ---xx   flac  0.4038  jim2016-12-18d01t06.flac
     4:54.70       52026284 B   ---   --   ---xx   flac  0.3799  jim2016-12-18d01t07.flac
     5:03.32       53524508 B   ---   --   ---xx   flac  0.4510  jim2016-12-18d01t08.flac
     5:06.17       54018428 B   ---   --   ---xx   flac  0.3606  jim2016-12-18d01t09.flac
     7:22.47       78079388 B   ---   --   ---xx   flac  0.4136  jim2016-12-18d01t10.flac
     4:01.20       42559484 B   ---   --   ---xx   flac  0.4183  jim2016-12-18d01t11.flac
     6:24.43       67838780 B   ---   --   ---xx   flac  0.4118  jim2016-12-18d01t12.flac
     6:07.69       64901132 B   ---   --   ---xx   flac  0.4485  jim2016-12-18d01t13.flac
     5:08.23       54385340 B   ---   --   ---xx   flac  0.4722  jim2016-12-18d01t14.flac
     7:07.47       75433388 B   ---   --   ---xx   flac  0.4221  jim2016-12-18d01t15.flac
     4:30.69       47790332 B   ---   --   ---xx   flac  0.3701  jim2016-12-18d01t16.flac
    73:21.30      776407664 B                            0.4126  (16 files)
 










More information about the bittorrent mailing list