[bittorrent] Kevn Kinney And Friends T-Dawgs Holiday Hootenanny Terminal West Atlanta, Georgia 12/18/2016 (Schoeps CCM4V'S FOB)

Automated Mailer noreply-bt.e at etree.org
Mon Dec 19 17:31:29 UTC 2016


Band:           Kevn Kinney
Torrent Name:   Kevn Kinney And Friends T-Dawgs Holiday Hootenanny Terminal West Atlanta, Georgia 12/18/2016 (Schoeps CCM4V'S FOB)
Uploaded by:    zmanatl
DB Link:        
Details:        http://bt.etree.org/details.php?id=590426

Contact the seeder at http://db.etree.org/zmanatl

If the link to this show does not work, it was probably removed for
being non-trade-friendly.

Description / text file:
-------------------------
Kevn Kinney And Friends
T-Dawgs Holiday Hootenanny
Terminal West
Atlanta, Georgia
12/18/2016 

Source: Schoeps CCM4V's>Lunatec V2>Benchmark AD2K>
Sound Devices 722 (24/44)
FOB/DFC/KFC/ZFC/AARP 35' From Stage, 7' High
DSP: Sound Devices 722>Sound Forge 10.0>CD Wave>flac(16)
ID3 Tagged In Foobar 2000
Recorded By: Z-Man
Seeded By: Z-Man

Disc I 

01 Wildman Steve Introduction
02 ?
03 Let's Go Dancin' >
04 I've Got A Feelin'
05 *This Town 
06 40 Miles Of Mountain Road
07 Good Country Mile
08 Kevn Banter
09 Which Jesus >
10 Straight To Hell
11 The Times They Are A Changin'
12 Wildman Steve Outro

* First Time Played Live

Kevn Kinney - Guitar And Vocals
Matt Williams - Guitar And Vocals
Kevin Scott - Bass
Kevin Thomas - Keyboards
Bobby Miller - Mandolin And Vocals
Yonrico Scott - Drums
Bill Fleming - Pedal Steel Guitar
Ritchie Jones - Percussion
Guarev Malhotra - Percussion

kevnkinney2016-12-18d01t01.flac:0783f8fea5862464f1dbf63bc17b1655
kevnkinney2016-12-18d01t02.flac:e6ada34683d8b879bcf6b4f7f2624db8
kevnkinney2016-12-18d01t03.flac:fa36a6b43943f67653dc8511d9618f80
kevnkinney2016-12-18d01t04.flac:b09d3864df0e2f290bb97cc164e27aac
kevnkinney2016-12-18d01t05.flac:64828e37541c89cc44f9c6e3c7534030
kevnkinney2016-12-18d01t06.flac:98914afcc359b1da36a067f830dda878
kevnkinney2016-12-18d01t07.flac:b30528a4ec5ea07b0650d5030e38d70c
kevnkinney2016-12-18d01t08.flac:d0c135d35e8c8ceb2c39a472ab86d7fe
kevnkinney2016-12-18d01t09.flac:cbea5253ee8f027e4d805c0d438c5bb8
kevnkinney2016-12-18d01t10.flac:e0f46ecf937188edb6dbff4875d30b17
kevnkinney2016-12-18d01t11.flac:be78979b1c7eb3f753cdeca9b9b93ccf
kevnkinney2016-12-18d01t12.flac:8b8b3308befcb8d7060e280d195d002c

length     expanded size    cdr  WAVE problems  fmt   ratio  filename
     1:55.55       20415404 B   ---   --   ---xx   flac  0.3359  kevnkinney2016-12-18d01t01.flac
     7:40.16       81181676 B   ---   --   ---xx   flac  0.4074  kevnkinney2016-12-18d01t02.flac
     5:26.09       57527612 B   ---   --   ---xx   flac  0.4473  kevnkinney2016-12-18d01t03.flac
     2:42.31       28649756 B   ---   --   ---xx   flac  0.5587  kevnkinney2016-12-18d01t04.flac
     8:09.63       86407820 B   ---   --   ---xx   flac  0.3754  kevnkinney2016-12-18d01t05.flac
     6:47.18       71837180 B   ---   --   ---xx   flac  0.4820  kevnkinney2016-12-18d01t06.flac
    12:47.70      135463484 B   ---   --   ---xx   flac  0.3741  kevnkinney2016-12-18d01t07.flac
     5:15.57       55700108 B   ---   --   ---xx   flac  0.3386  kevnkinney2016-12-18d01t08.flac
     3:33.36       37657916 B   ---   --   ---xx   flac  0.4619  kevnkinney2016-12-18d01t09.flac
     7:01.33       74342060 B   ---   --   ---xx   flac  0.4584  kevnkinney2016-12-18d01t10.flac
     9:03.24       95841692 B   ---   --   ---xx   flac  0.4398  kevnkinney2016-12-18d01t11.flac
     2:35.51       27461996 B   ---   --   ---xx   flac  0.3786  kevnkinney2016-12-18d01t12.flac
    72:59.13      772486704 B                            0.4172  (12 files)













More information about the bittorrent mailing list