[bittorrent] gd1969-02-07.sbd.wise.sirmick.137392.sbeok.flac16 e

Automated Mailer noreply-bt.e at etree.org
Sun Dec 18 10:00:17 UTC 2016


Band:           Grateful Dead
Torrent Name:   gd1969-02-07.sbd.wise.sirmick.137392.sbeok.flac16 e
Uploaded by:    grateful darkstar
DB Link:        
Details:        http://bt.etree.org/details.php?id=590407

Contact the seeder at http://db.etree.org/grateful darkstar

If the link to this show does not work, it was probably removed for
being non-trade-friendly.

Description / text file:
-------------------------
Grateful Dead
Stanley Theater
Pittsburg, PA
02/07/1969


Source:  Soundboard > master cassette (recorded by Bear (Owsley) on a "Concord" cassette deck model unknown >
         Ampex 90-minute cassette > 
         Restoration & Preservation by Rob Eaton
Transfer : Playback on a Tascam 122 mk111 (azimuth adjusted) > db 926 a/d converter > db 3000 s sample rate converter
           (variable speed) > panasonic 3800 DAT @ 44.1 kHz By Rob Eaton > DAT > Sony PCM R-500 >
           Digital Audio Labs Card Deluxe > Adobe Audition C.C.2014  > wav 16/44.1

Lineage: wav 16/44.1 >Adobe Audition 3.0.1 > iZotope RX4 Advanced > iZotope 5 Advanced >
         CD Wave > TLH > Flac16



Set I

01   Intro >
02   Dark Star >
03   St. Stephen >
04   William Tell Bridge >
05   The Eleven >
06   Turn On Your//Love Light


Set II

01   George Washington Story/banter

02   Cryptical Envelopment >

03   The Other One >

04   Cryptical Envelopment >

05   Death Don't Have No Mercy
06   tuning

07   Alligator >

08   Drums >

09   Jam >

10   China Cat jam >

11   Jam >

12   Caution (Do Not Stop On Tracks) >

13   Feedback >

14   And We Bid You Good Night



Notes:

- Two pops removed and a couple of partial dropouts repaired.
- There is a splice in 'Love Light' at 7:48


Thanks to Jim Wise for providing his copy.


edited and mastered
SIRMick
December 2016


shntool output:

    length     expanded size    cdr  WAVE problems  fmt   ratio  filename
     0:28.47        5049788 B   ---   --   ---xx   flac  0.5062  gd1969-02-07et01.flac
    14:06.52      149356748 B   ---   --   ---xx   flac  0.5220  gd1969-02-07et02.flac
     5:21.53       56749100 B   ---   --   ---xx   flac  0.5433  gd1969-02-07et03.flac
     5:09.31       54580556 B   ---   --   ---xx   flac  0.5413  gd1969-02-07et04.flac
    10:21.41      109640876 B   ---   --   ---xx   flac  0.5700  gd1969-02-07et05.flac
    13:30.60      143025164 B   ---   --   ---xx   flac  0.5311  gd1969-02-07et06.flac
     1:22.45       14570684 B   ---   --   ---xx   flac  0.4257  gd1969-02-07lt01.flac
     1:54.45       20215484 B   ---   --   ---xx   flac  0.4528  gd1969-02-07lt02.flac
     7:27.08       78869660 B   ---   --   ---xx   flac  0.4979  gd1969-02-07lt03.flac
     9:04.37       96048668 B   ---   --   ---xx   flac  0.4857  gd1969-02-07lt04.flac
     9:54.69      104943932 B   ---   --   ---xx   flac  0.4678  gd1969-02-07lt05.flac
     1:39.57       17597708 B   ---   --   ---xx   flac  0.4385  gd1969-02-07lt06.flac
     3:43.31       39410156 B   ---   --   ---xx   flac  0.4998  gd1969-02-07lt07.flac
     3:51.14       40781372 B   ---   --   ---xx   flac  0.4743  gd1969-02-07lt08.flac
     1:05.20       11513084 B   ---   --   ---xx   flac  0.5316  gd1969-02-07lt09.flac
     1:19.03       13942700 B   ---   --   ---xx   flac  0.5188  gd1969-02-07lt10.flac
     7:52.02       83265548 B   ---   --   ---xx   flac  0.4930  gd1969-02-07lt11.flac
     6:33.21       69374636 B   ---   --   ---xx   flac  0.5101  gd1969-02-07lt12.flac
     4:02.61       42832316 B   ---   --   ---xx   flac  0.4768  gd1969-02-07lt13.flac
     1:47.14       18907772 B   ---   --   ---xx   flac  0.5041  gd1969-02-07lt14.flac
   110:36.36     1170675952 B                            0.5093  (20 files)



More information about the bittorrent mailing list