[bittorrent] Tribute (Allman Brothers Tribute Band) Cosmopolitan, Marietta, Georgia 12/17/2016 (Schoeps CCM4V'S FOB)

Automated Mailer noreply-bt.e at etree.org
Sun Dec 18 07:31:39 UTC 2016


Band:           Other
Torrent Name:   Tribute (Allman Brothers Tribute Band) Cosmopolitan,Marietta, Georgia 12/17/2016 (Schoeps CCM4V'S FOB)
Uploaded by:    zmanatl
DB Link:        
Details:        http://bt.etree.org/details.php?id=590404

Contact the seeder at http://db.etree.org/zmanatl

If the link to this show does not work, it was probably removed for
being non-trade-friendly.

Description / text file:
-------------------------
Tribute - A Celebration Of The Allman Brothers Band
Cosmopolitan
Marietta, Georgia
12/17/2016 

Source: Schoeps CCM4V's>Lunatec V2>Benchmark AD2K>
Sound Devices 722 (24/44)
FOB/DFC/KFC/ZFC/AARP 17' From Stage, 7' High
DSP: Sound Devices 722>Sound Forge 10.0>CD Wave>flac(16)
ID3 Tagged In Foobar 2000
Recorded By: Z-Man
Seeded By: Z-Man

Disc I 1st Set

01 Greeting By Larry 
02 Don't Want You No More >
03 Ain't My Cross To Bear
04 Don't Keep Me Wonderin'
05 Done Somebody Wrong
06 Stand Back
07 Ain't Wastin' Time No More 
08 Blue Sky
09 Midnight Rider
10 Stormy Monday
11 Revival

Disc II 1st Set Con't

01 Every Hungry Woman
02 Dreams
03 Southbound
04 *In Memory Of Elizabeth Reed
2nd Set:
05 Larry Banter
06 Hot 'Lanta
07 Black-Hearted Woman 
08 Oliver Banter
09 Come And Go Blues

Disc III 2nd Set Con't

01 Soulshine
02 Jessica
03 Melissa
04 Statesboro Blues
05 Trouble No More
06 One Way Out 
07 Ramblin' Man
08 Whippin' Post
09 Layla

* With Les Brers In A Minor Tease

Rod Gunther - Guitar And Vocals
Larry Griggs - Guitar And Vocals
Chris Jones - Bass
Oliver Nichols - Vocals
Scott Trudeau - Drums 
Tom Stinson - Drums
John Marsten - Percussion And Acoustic Guitar
? - Keyboards

tribute2016-12-17d01t01.flac:e0f7ab4a6a5c8eb774a71510358bf6f8
tribute2016-12-17d01t02.flac:f76c22cbf373bca6a24ba8ada90401b3
tribute2016-12-17d01t03.flac:8a439d4e820ee1fa3aaa8b172de7dbb0
tribute2016-12-17d01t04.flac:60281e19b7dde6e2e03783b60d09ab66
tribute2016-12-17d01t05.flac:6ea8fc6eb6d3b541de8691cba473dd3a
tribute2016-12-17d01t06.flac:1aae611f0d51faa5b966b24bdd1a8b33
tribute2016-12-17d01t07.flac:774e5f13a729339a9bbed984f55ac3b4
tribute2016-12-17d01t08.flac:e1c90d3085b0d1a2989f1c49838569e0
tribute2016-12-17d01t09.flac:4a50ee58f2f5693e3787fbed98b34fd9
tribute2016-12-17d01t10.flac:42ecad6e239ea49f5b88fc5d97939de0
tribute2016-12-17d01t11.flac:a061675df17b7028d449cb239377d22d
tribute2016-12-17d02t01.flac:92208001f3b80b4c70084b05b2876d00
tribute2016-12-17d02t02.flac:cd4ba0493878658e41d7c65dcad4eb4b
tribute2016-12-17d02t03.flac:0294f3c3bd717ccf3035dee37b8d2a5d
tribute2016-12-17d02t04.flac:a59ac5a07bf5d96b6a4a2741e835c254
tribute2016-12-17d02t05.flac:426a013b5f64f81fcb0c91c1f1fcd945
tribute2016-12-17d02t06.flac:2fd964839ca4fee31ffa42390062a617
tribute2016-12-17d02t07.flac:736d282edb0002684c4f3751c8adadb2
tribute2016-12-17d02t08.flac:a3d4bf098f36f97a27d2aad3ab797206
tribute2016-12-17d02t09.flac:d37452ce43fc7878a942c4e5df52b4c0
tribute2016-12-17d03t01.flac:385b0bd05bd4a3741488082d104e9d2e
tribute2016-12-17d03t02.flac:d7ab136753f7ea432d647edb1780baf7
tribute2016-12-17d03t03.flac:a486182e38ca03ba820a3d26672ebecd
tribute2016-12-17d03t04.flac:2b784e960bcf965872e00ed06d069b71
tribute2016-12-17d03t05.flac:7841c954b511c113a0717193e87431b5
tribute2016-12-17d03t06.flac:b0fd697f7b23c2caf73acb68476903d8
tribute2016-12-17d03t07.flac:d89ea244c47683d1f988e86060e21dc8
tribute2016-12-17d03t08.flac:a0ce84def334c7fa7705acc7786873e1
tribute2016-12-17d03t09.flac:c4834deb58d46f92b778c0b9023e8c79

 length     expanded size    cdr  WAVE problems  fmt   ratio  filename
     0:56.01        9880796 B   ---   --   ---xx   flac  0.2364  tribute2016-12-17d01t01.flac
     2:38.03       27878300 B   ---   --   ---xx   flac  0.6076  tribute2016-12-17d01t02.flac
     5:50.40       61834124 B   ---   --   ---xx   flac  0.5066  tribute2016-12-17d01t03.flac
     3:48.55       40348604 B   ---   --   ---xx   flac  0.5658  tribute2016-12-17d01t04.flac
     4:02.42       42787628 B   ---   --   ---xx   flac  0.5545  tribute2016-12-17d01t05.flac
     4:16.62       45304268 B   ---   --   ---xx   flac  0.5474  tribute2016-12-17d01t06.flac
     5:30.48       58324940 B   ---   --   ---xx   flac  0.4969  tribute2016-12-17d01t07.flac
     6:11.10       65467964 B   ---   --   ---xx   flac  0.5333  tribute2016-12-17d01t08.flac
     3:40.29       38876252 B   ---   --   ---xx   flac  0.5522  tribute2016-12-17d01t09.flac
    10:52.41      115109276 B   ---   --   ---xx   flac  0.5152  tribute2016-12-17d01t10.flac
     4:18.06       45525356 B   ---   --   ---xx   flac  0.5860  tribute2016-12-17d01t11.flac
     6:15.04       66159452 B   ---   --   ---xx   flac  0.5296  tribute2016-12-17d02t01.flac
     9:09.50       96961244 B   ---   --   ---xx   flac  0.5430  tribute2016-12-17d02t02.flac
     6:28.66       68598476 B   ---   --   ---xx   flac  0.5735  tribute2016-12-17d02t03.flac
    11:40.02      123484748 B   ---   --   ---xx   flac  0.5834  tribute2016-12-17d02t04.flac
     1:03.06       11127356 B   ---   --   ---xx   flac  0.2715  tribute2016-12-17d02t05.flac
     5:49.20       61610684 B   ---   --   ---xx   flac  0.5712  tribute2016-12-17d02t06.flac
     5:34.68       59077580 B   ---   --   ---xx   flac  0.6465  tribute2016-12-17d02t07.flac
     2:16.06       24004556 B   ---   --   ---xx   flac  0.2946  tribute2016-12-17d02t08.flac
     5:12.36       55121516 B   ---   --   ---xx   flac  0.5769  tribute2016-12-17d02t09.flac
     6:57.46       73667036 B   ---   --   ---xx   flac  0.5407  tribute2016-12-17d03t01.flac
    10:36.69      112352732 B   ---   --   ---xx   flac  0.5434  tribute2016-12-17d03t02.flac
     6:15.41       66246476 B   ---   --   ---xx   flac  0.4565  tribute2016-12-17d03t03.flac
     5:34.73       59089340 B   ---   --   ---xx   flac  0.5835  tribute2016-12-17d03t04.flac
     4:21.42       46139228 B   ---   --   ---xx   flac  0.6416  tribute2016-12-17d03t05.flac
     7:31.34       79636412 B   ---   --   ---xx   flac  0.5226  tribute2016-12-17d03t06.flac
     5:04.34       53705612 B   ---   --   ---xx   flac  0.5504  tribute2016-12-17d03t07.flac
    10:14.03      108316700 B   ---   --   ---xx   flac  0.5635  tribute2016-12-17d03t08.flac
     8:05.49       85669292 B   ---   --   ---xx   flac  0.5622  tribute2016-12-17d03t09.flac
   170:17.11     1802305948 B                            0.5455  (29 files)










More information about the bittorrent mailing list