[bittorrent] ph2004-06-26.137386.DPA4011-analog-nagra.flac1644

Automated Mailer noreply-bt.e at etree.org
Sat Dec 17 20:39:41 UTC 2016


Band:           Phish
Torrent Name:   ph2004-06-26.137386.DPA4011-analog-nagra.flac1644
Uploaded by:    mvernon
DB Link:        
Details:        http://bt.etree.org/details.php?id=590393

Contact the seeder at http://db.etree.org/mvernon

If the link to this show does not work, it was probably removed for
being non-trade-friendly.

Description / text file:
-------------------------
Phish 2nd Night June 26th 2004 last tour Alpine Valley East Troy Wisconsin.

Here is without a doubt the best recording to come out of both nights.
Lucky enough to have the stand (mics) IN the soundboard area near the lighting
guy. VERY ENJOYABLE RECORDING! As far as demand goes. I have never witnessed
such intense demand to get in to these shows. Stones, Floyd, McCartney all not
like this event. If I had ten lawn tickets, I would have been rich.

**NAGRA REEL TO REEL**

Using the ultra HI-FI DPA 4011 microphones.

For you guys that have not
had the privilege to hear this......be ready!!! CRANK IT
ON YOUR BEST STEREO!

Analog Master cdr! RB

**DO NOT CHANGE THESE CD'S IN ANYWAY EXCEPT FOR...YOUR... USE!**

Recorder: Nagra IV-S Reel to Reel analog
Tape: Scotch 3M-967 1.0 mil @ 7 i.p.s. (48.5 Minutes)
Mics: DPA 4011
Played back on identical machine thru >
Chord Company Cables (Naim) >
Pre-amp: Naim 52 >
CDR Recorder: (Stand Alone) Marantz CDR-600 (Philips CDR-101)
CDR's: Satin Gold Taiyo Yuden 74-ZY (only the best)! >
PC (XP Pro) Drive: UltraPlex40max SCSI w/adaptec 2930 (PCI Adapter)
EAC>FLAC>To You Guys, enjoy, RB

**I don't care about set lists, tracking, art work or cut songs.
Quality control of sound is all I care about.**

BEWARE: ALL MY RECORDINGS ARE TRACKED ON THE FLY! Please correct!

These are screwed up, but who cares with sound like this!

3cd's

Access Me
Scents and Subtle Sounds
Stash
The Moma Dance
The Divided Sky
Wilson
Funky Bitch
Character Zero
Boogie On Reggae Woman
Ghost
Free
Friday
Piper
Harry Hood
Encore: Possum


——— shntool added by mvernon —————

    length     expanded size    cdr  WAVE problems  fmt   ratio  filename
    12:31.57      132610508 B   ---   --   ---xx   flac  0.5527  PhishJune26-2004Alpinecd1Track01.flac
     2:30.36       26544716 B   ---   --   ---xx   flac  0.4736  PhishJune26-2004Alpinecd1Track02.flac
    13:09.43      139280780 B   ---   --   ---xx   flac  0.5593  PhishJune26-2004Alpinecd1Track03.flac
     9:22.08       99155660 B   ---   --   ---xx   flac  0.5385  PhishJune26-2004Alpinecd1Track04.flac
     5:45.37       60945068 B   ---   --   ---xx   flac  0.5200  PhishJune26-2004Alpinecd1Track05.flac
     5:16.48       55855340 B   ---   --   ---xx   flac  0.5501  PhishJune26-2004Alpinecd1Track06.flac
     6:44.60       71406764 B   ---   --   ---xx   flac  0.5665  PhishJune26-2004Alpinecd2Track01.flac
     6:31.00       68972444 B   ---   --   ---xx   flac  0.5703  PhishJune26-2004Alpinecd2Track02.flac
     7:04.34       74873612 B   ---   --   ---xx   flac  0.5916  PhishJune26-2004Alpinecd2Track03.flac
    28:14.26      298882796 B   ---   --   ---xx   flac  0.5556  PhishJune26-2004Alpinecd2Track04.flac
     3:34.13       37780220 B   ---   --   ---xx   flac  0.5475  PhishJune26-2004Alpinecd3Track01.flac
     8:54.46       94305836 B   ---   --   ---xx   flac  0.5378  PhishJune26-2004Alpinecd3Track02.flac
     8:29.43       89888780 B   ---   --   ---xx   flac  0.5375  PhishJune26-2004Alpinecd3Track03.flac
     9:09.12       96871868 B   ---   --   ---xx   flac  0.5744  PhishJune26-2004Alpinecd3Track04.flac
    18:27.24      195331292 B   ---   --   ---xx   flac  0.5515  PhishJune26-2004Alpinecd3Track05.flac
    13:52.72      146934188 B   ---   --   ---xx   flac  0.5424  PhishJune26-2004Alpinecd3Track06.flac
   159:38.34     1689639872 B                            0.5519  (16 files)



More information about the bittorrent mailing list