[bittorrent] Voodoo Visionary Good Ol' Days Cumming, Georgia 12/16/2016 (Schoeps CCM4V'S FOB)

Automated Mailer noreply-bt.e at etree.org
Sat Dec 17 18:41:13 UTC 2016


Band:           Other
Torrent Name:   Voodoo Visionary Good Ol' Days Cumming, Georgia 12/16/2016 (Schoeps CCM4V'S FOB)
Uploaded by:    zmanatl
DB Link:        
Details:        http://bt.etree.org/details.php?id=590389

Contact the seeder at http://db.etree.org/zmanatl

If the link to this show does not work, it was probably removed for
being non-trade-friendly.

Description / text file:
-------------------------
Voodoo Visionary
Good Ol' Days
Cumming, Georgia
12/16/2016 

Source: Schoeps CCM4V's>Lunatec V2>Benchmark AD2K>
Sound Devices 722 (24/44)
FOB/DFC/KFC/ZFC/AARP 10' From Stage, 7 1/2' High
DSP: Sound Devices 722>Sound Forge 10.0>CD Wave>flac(16)
ID3 Tagged In Foobar 2000
Recorded By: Z-Man
Seeded By: Z-Man

Disc I 1st Set

01 Saving Face
02 People Say
03 *Off The Ground
04 I've Got A Feelin'
05 Ain't It Funky Now
06 *Harmony

Disc II 1st Set Con't

01 Evil Ways 
02 *Roscoe
03 *Cold Shallow 
04 Eyes Of The World >
05 *Shakedown Street >
06 Drum Solo >
07 *Shakedown Street

Disc III 2nd Set

01 *Get Down
02 ?
03 *Gunk
04 Do It like You
05 Fame
06 Wilson (Beginning Only) >
07 Testify

Disc IV 2nd Set Con't

01 Hero
02 *Let's Stay Together
03 *Signed, Sealed, Delivered
04 Hold Tight
05 *Spanish Moon
06 *? >
07 *Jam >
08 *We're Gonna Have A Funky Good Time >
09 Drum Solo >
10 *We're Gonna Have A Funky Good Time

* With Ben Otierio On Trumpet

Mac Schmitz - Drums
Michael Wilson - Guitar
Scott MacDonald - Vocals
Jimmy Lynch - Bass
Dennis Dowd - Keyboards
Martin Anderson - Saxophone
Jose - Percussion

voodoo2016-12-16d01t01.flac:fe2ad891042423c70d4d61decc712444
voodoo2016-12-16d01t02.flac:51b5d320b0199afe26bde4a4dff1836e
voodoo2016-12-16d01t03.flac:d1e22926313cd261d9b3e5c992fdbf9f
voodoo2016-12-16d01t04.flac:da83042f10d61e5b465be787b75d70d9
voodoo2016-12-16d01t05.flac:853c15787bbe3748662b8744b9128610
voodoo2016-12-16d01t06.flac:cd357d95e69b0cb88e3c6ac3506848c8
voodoo2016-12-16d02t01.flac:a0eb9ea648e0188a08c3dde042bf1f84
voodoo2016-12-16d02t02.flac:998a51f7bdcb1a2786adfd1bedaf38a4
voodoo2016-12-16d02t03.flac:6dcb3adeefbd62eef6105499c5236a54
voodoo2016-12-16d02t04.flac:da8120007ccb4877cb68def41363a67f
voodoo2016-12-16d02t05.flac:aad2abd145072fcb3be398eaf72c42f2
voodoo2016-12-16d02t06.flac:6cdd8017465a5039791ead2bc98d89c9
voodoo2016-12-16d02t07.flac:ccf1d95f7830bc1582a5622bc80f106b
voodoo2016-12-16d03t01.flac:6bf633a77ad5ec5ebababd9b4ea64820
voodoo2016-12-16d03t02.flac:373fe515147633294c31e2e7ad2fb321
voodoo2016-12-16d03t03.flac:616d66d60566ad696d688c9569b83e41
voodoo2016-12-16d03t04.flac:b3858113e98d037fbb73334b481ee5b6
voodoo2016-12-16d03t05.flac:f3103a50b2d189e0dd232992341b5431
voodoo2016-12-16d03t06.flac:03ccbf37b81844a25e47c08e6fae3d9f
voodoo2016-12-16d03t07.flac:2a5b732940ae9cb1c8141a81780f3e86
voodoo2016-12-16d04t01.flac:a971cd2d4905647da928bd00b68a3f0d
voodoo2016-12-16d04t02.flac:c1a4e7d1d989c054b60cdf3cf95adcc2
voodoo2016-12-16d04t03.flac:3ac82db6aab4b9e708676f0dc582a5c0
voodoo2016-12-16d04t04.flac:87bddc5b761c58dc9e2caa001111b5c7
voodoo2016-12-16d04t05.flac:d8265b3f2506b6f5d5e7999c7293fe8e
voodoo2016-12-16d04t06.flac:b564192f2559d3eb282dc4afefa5fb6f
voodoo2016-12-16d04t07.flac:ca6261f8d37e06e29ce81f6ec110cc23
voodoo2016-12-16d04t08.flac:4187a8fbc0f641a349b85c4fe00c90a5
voodoo2016-12-16d04t09.flac:b48db40d3ea6181234e6acf262444cc1
voodoo2016-12-16d04t10.flac:e2f7cc78f5eac348dd772e9d6382505a

    length     expanded size    cdr  WAVE problems  fmt   ratio  filename
     9:43.34      102921212 B   ---   --   ---xx   flac  0.5589  voodoo2016-12-16d01t01.flac
    12:25.43      131519180 B   ---   --   ---xx   flac  0.5748  voodoo2016-12-16d01t02.flac
     6:26.29       68158652 B   ---   --   ---xx   flac  0.5801  voodoo2016-12-16d01t03.flac
     6:01.26       63741596 B   ---   --   ---xx   flac  0.5388  voodoo2016-12-16d01t04.flac
     9:37.67      101940428 B   ---   --   ---xx   flac  0.5514  voodoo2016-12-16d01t05.flac
     9:32.20      100947884 B   ---   --   ---xx   flac  0.5910  voodoo2016-12-16d01t06.flac
     9:10.53       97144700 B   ---   --   ---xx   flac  0.5399  voodoo2016-12-16d02t01.flac
     4:16.33       45236060 B   ---   --   ---xx   flac  0.5860  voodoo2016-12-16d02t02.flac
     8:03.36       85285916 B   ---   --   ---xx   flac  0.5783  voodoo2016-12-16d02t03.flac
     9:34.57      101387708 B   ---   --   ---xx   flac  0.5476  voodoo2016-12-16d02t04.flac
     8:16.18       87536780 B   ---   --   ---xx   flac  0.5838  voodoo2016-12-16d02t05.flac
     1:02.23       10990940 B   ---   --   ---xx   flac  0.5589  voodoo2016-12-16d02t06.flac
     6:25.18       67956380 B   ---   --   ---xx   flac  0.5647  voodoo2016-12-16d02t07.flac
     8:37.13       91229420 B   ---   --   ---xx   flac  0.5805  voodoo2016-12-16d03t01.flac
     7:26.45       78780284 B   ---   --   ---xx   flac  0.5506  voodoo2016-12-16d03t02.flac
     7:58.21       84368636 B   ---   --   ---xx   flac  0.5047  voodoo2016-12-16d03t03.flac
     9:28.08      100214060 B   ---   --   ---xx   flac  0.5722  voodoo2016-12-16d03t04.flac
     9:35.44      101533532 B   ---   --   ---xx   flac  0.5786  voodoo2016-12-16d03t05.flac
     0:49.13        8674220 B   ---   --   ---xx   flac  0.4002  voodoo2016-12-16d03t06.flac
    12:51.40      136098524 B   ---   --   ---xx   flac  0.5893  voodoo2016-12-16d03t07.flac
     9:02.59       95747612 B   ---   --   ---xx   flac  0.5527  voodoo2016-12-16d04t01.flac
     8:34.01       90671996 B   ---   --   ---xx   flac  0.4927  voodoo2016-12-16d04t02.flac
     5:41.71       60319436 B   ---   --   ---xx   flac  0.5540  voodoo2016-12-16d04t03.flac
     7:16.24       76966892 B   ---   --   ---xx   flac  0.5244  voodoo2016-12-16d04t04.flac
    12:18.61      130326716 B   ---   --   ---xx   flac  0.5036  voodoo2016-12-16d04t05.flac
    15:44.29      166589852 B   ---   --   ---xx   flac  0.5578  voodoo2016-12-16d04t06.flac
     2:45.03       29113100 B   ---   --   ---xx   flac  0.5711  voodoo2016-12-16d04t07.flac
     0:57.16       10092476 B   ---   --   ---xx   flac  0.5338  voodoo2016-12-16d04t08.flac
     1:13.64       13027772 B   ---   --   ---xx   flac  0.4841  voodoo2016-12-16d04t09.flac
     2:29.14       26316572 B   ---   --   ---xx   flac  0.5165  voodoo2016-12-16d04t10.flac
   223:26.08     2364838536 B                            0.5551  (30 files)















More information about the bittorrent mailing list