[bittorrent] Turkuaz Terminal West Atlanta, Georgia 12/15/2016 (Schoeps CCM4V'S FOB)

Automated Mailer noreply-bt.e at etree.org
Fri Dec 16 15:19:45 UTC 2016


Band:           Other
Torrent Name:   Turkuaz Terminal West Atlanta, Georgia 12/15/2016 (Schoeps CCM4V'S FOB)
Uploaded by:    zmanatl
DB Link:        
Details:        http://bt.etree.org/details.php?id=590383

Contact the seeder at http://db.etree.org/zmanatl

If the link to this show does not work, it was probably removed for
being non-trade-friendly.

Description / text file:
-------------------------
Turkuaz
Terminal West
Atlanta, Georgia
12/15/2016 

Source: Schoeps CCM4V's>Lunatec V2>Benchmark AD2K>
Sound Devices 722 (24/44)
FOB/DFC/KFC/ZFC/AARP Clamped To The Rail On The Front Of The Balcony
DSP: Sound Devices 722>Sound Forge 10.0>CD Wave>flac(16)
ID3 Tagged In Foobar 2000
Recorded By: Z-Man
Seeded By: Z-Man

RIP Craig Sager

Disc I 

01 Greeting
02 Chatte
03 Percy Thrills The Moondog
04 Tiptoe Through The Crypto >
05 20 >
06 Murder Face
07 Holy Gost 
08 Last

Disc II 

01 Nightswimming
02 ?
03 ?
04 ?
05 ? >
06 Drum Solo >
07 ?
08 ?

Dave Brandwein - Guitar And Vocals
Taylor Shell - Bass
Craig Brodhead - Guitar And Keyboards
Michelangelo Carubba - Drums
Chris Brouwers - Trumpet And Keyboards
Greg Sanderson - Tenor Saxophone
Josh Schwartz - Baritone Saxophone And Vocals
Vocals, Percussion / Sammi Garett - Vocals And Percussion
Shira Elias - Vocals

turkuaz2016-12-15d01t01.flac:dd02c4f1638bf5e2b89d4acaea5bef9a
turkuaz2016-12-15d01t02.flac:09c2b79f748da1821701bf337f7175e9
turkuaz2016-12-15d01t03.flac:5bad9c779a94b56754affec85e729bb6
turkuaz2016-12-15d01t04.flac:4fa2f787a94ecc5d8310ed9df42b4fbf
turkuaz2016-12-15d01t05.flac:26a7973ce753e94e937c2acaa0492185
turkuaz2016-12-15d01t06.flac:dd6ee9df5a4db27c955975e9e77fdbd8
turkuaz2016-12-15d01t07.flac:d3ccc80a3b9ceed734dc292f8762b99d
turkuaz2016-12-15d01t08.flac:840a7caa7b5fcb6545bb6618f57dfe3b
turkuaz2016-12-15d02t01.flac:158d8cb246a620c627e3552c4acb03de
turkuaz2016-12-15d02t02.flac:2134c0241cd544bc6da9ce43bc3bcd6b
turkuaz2016-12-15d02t03.flac:2607499e6a6823c85cc3778f47ec363e
turkuaz2016-12-15d02t04.flac:5ed1b486ef170b3b7b8f9ed1157be67f
turkuaz2016-12-15d02t05.flac:247200a449e33e60098a299452de06de
turkuaz2016-12-15d02t06.flac:aeb5abc55a0dfbc9ecb9c1866930a151
turkuaz2016-12-15d02t07.flac:2704606c058630d60ac00b6c3ea4acdc
turkuaz2016-12-15d02t08.flac:9ea68c12315f2b0ff4d9612fb513a3b3

length     expanded size    cdr  WAVE problems  fmt   ratio  filename
     0:21.40        3798524 B   ---   --   ---xx   flac  0.3582  turkuaz2016-12-15d01t01.flac
     5:21.63       56772620 B   ---   --   ---xx   flac  0.5849  turkuaz2016-12-15d01t02.flac
     4:56.27       52277948 B   ---   --   ---xx   flac  0.6165  turkuaz2016-12-15d01t03.flac
     5:09.08       54526460 B   ---   --   ---xx   flac  0.5768  turkuaz2016-12-15d01t04.flac
     6:48.74       72145292 B   ---   --   ---xx   flac  0.5919  turkuaz2016-12-15d01t05.flac
     7:32.03       79739900 B   ---   --   ---xx   flac  0.5880  turkuaz2016-12-15d01t06.flac
     7:54.03       83620700 B   ---   --   ---xx   flac  0.6226  turkuaz2016-12-15d01t07.flac
     6:00.14       63536972 B   ---   --   ---xx   flac  0.6014  turkuaz2016-12-15d01t08.flac
     5:28.50       57976844 B   ---   --   ---xx   flac  0.5867  turkuaz2016-12-15d02t01.flac
     5:00.03       52927100 B   ---   --   ---xx   flac  0.5577  turkuaz2016-12-15d02t02.flac
     7:04.61       74937116 B   ---   --   ---xx   flac  0.5958  turkuaz2016-12-15d02t03.flac
     5:29.05       58047404 B   ---   --   ---xx   flac  0.5844  turkuaz2016-12-15d02t04.flac
     7:06.33       75224060 B   ---   --   ---xx   flac  0.5890  turkuaz2016-12-15d02t05.flac
     1:55.49       20401292 B   ---   --   ---xx   flac  0.5334  turkuaz2016-12-15d02t06.flac
     0:47.39        8382572 B   ---   --   ---xx   flac  0.6462  turkuaz2016-12-15d02t07.flac
     6:24.61       67881116 B   ---   --   ---xx   flac  0.6026  turkuaz2016-12-15d02t08.flac
    83:21.08      882195920 B                            0.5914  (16 files)












More information about the bittorrent mailing list