[bittorrent] jg1984-11-18.jgjk.akgce1.mance.wise.sirmick.137385.sbeok.flac16 e

Automated Mailer noreply-bt.e at etree.org
Fri Dec 16 10:34:46 UTC 2016


Band:           Garcia
Torrent Name:   jg1984-11-18.jgjk.akgce1.mance.wise.sirmick.137385.sbeok.flac16 e
Uploaded by:    grateful darkstar
DB Link:        
Details:        http://bt.etree.org/details.php?id=590376

Contact the seeder at http://db.etree.org/grateful darkstar

If the link to this show does not work, it was probably removed for
being non-trade-friendly.

Description / text file:
-------------------------
Jerry Garcia and John Kahn
Avery Fisher Hall
New York, NY
11/18/1984

Source: Audience Recording > AKG CE-1 mics > Uher Cr-240 > TDK SA-X 90 cassettes (no Dolby)
        Taped by Kenny Mance - 4th row center

Transfer: Master cassette > Uher Cr-240 > Sony PCM p-700 DAT @ 44.1k > Digital Audio Labs Card Deluxe > wav 6/44.1
          Jim Wise

Lineage: wav 16/44.1 > Adobe Audition 3.0.1 > iZotope RX4 Advanced > iZotope Ozone 5 Advanced > CD Wave >
         TLH > Flac16



Set 1

01   crowd/tuning
02   Deep Elem Blues   
03   It Takes A Lot To Laugh, It Takes A Train To Cry
04   Little Sadie 
05   Friend Of The Devil
06   crowd
07   Run For The Roses 
08   Simple Twist Of Fate 


Set 2

01   crowd/tuning
02   When I Paint My Masterpiece
03   I've Been All Around This World
04   Oh Babe, It Ain't No Lie
05   Bird Song 
06   Goodnight Irene




Jerry Garcia - acoustic guitar, vocals
John Kahn - double bass


Notes:

- Phase and level adjustments made
- A number of artifacts removed/repaired
- Loud claps attenuated




Sometimes a recording come along that perfectly captures a moment in time.  This is one of them.

Thanks to Kenny Mance for his great recording and Jim Wise for sending me a copy of his transfer.


edited and mastered
SIRMick
December 2016


shntool ouput:

    length     expanded size    cdr  WAVE problems  fmt   ratio  filename
     2:11.35       23190764 B   ---   --   ---xx   flac  0.4635  jg1984-11-18s1t01.flac
     7:49.29       82799852 B   ---   --   ---xx   flac  0.5362  jg1984-11-18s1t02.flac
     8:50.37       93579068 B   ---   --   ---xx   flac  0.5346  jg1984-11-18s1t03.flac
     4:55.38       52127420 B   ---   --   ---xx   flac  0.4961  jg1984-11-18s1t04.flac
     6:57.66       73714076 B   ---   --   ---xx   flac  0.5101  jg1984-11-18s1t05.flac
     1:06.40       11736524 B   ---   --   ---xx   flac  0.4386  jg1984-11-18s1t06.flac
     4:57.08       52409660 B   ---   --   ---xx   flac  0.5329  jg1984-11-18s1t07.flac
    11:23.22      120532988 B   ---   --   ---xx   flac  0.4736  jg1984-11-18s1t08.flac
     0:26.25        4645244 B   ---   --   ---xx   flac  0.4390  jg1984-11-18s2t01.flac
     9:31.02      100729148 B   ---   --   ---xx   flac  0.5115  jg1984-11-18s2t02.flac
     6:48.38       72060620 B   ---   --   ---xx   flac  0.4627  jg1984-11-18s2t03.flac
     5:49.51       61683596 B   ---   --   ---xx   flac  0.4373  jg1984-11-18s2t04.flac
    13:58.53      147947900 B   ---   --   ---xx   flac  0.4859  jg1984-11-18s2t05.flac
    10:42.13      113279420 B   ---   --   ---xx   flac  0.4942  jg1984-11-18s2t06.flac
    95:28.07     1010436280 B                            0.4954  (14 files)



More information about the bittorrent mailing list