[bittorrent] The New Mastersounds Terminal West Atlanta, Georgia 12/15/2016 (Schoeps CCM4V'S FOB)

Automated Mailer noreply-bt.e at etree.org
Fri Dec 16 08:13:29 UTC 2016


Band:           Other
Torrent Name:   The New Mastersounds Terminal West Atlanta, Georgia 12/15/2016 (Schoeps CCM4V'S FOB)
Uploaded by:    zmanatl
DB Link:        
Details:        http://bt.etree.org/details.php?id=590375

Contact the seeder at http://db.etree.org/zmanatl

If the link to this show does not work, it was probably removed for
being non-trade-friendly.

Description / text file:
-------------------------
The New Mastersounds
Terminal West
Atlanta, Georgia
12/15/2016 

Source: Schoeps CCM4V's>Lunatec V2>Benchmark AD2K>
Sound Devices 722 (24/44)
FOB/DFC/KFC/ZFC/AARP Clamped To The Rail On The Front Of The Balcony
DSP: Sound Devices 722>Sound Forge 10.0>CD Wave>flac(16)
ID3 Tagged In Foobar 2000
Recorded By: Z-Man
Seeded By: Z-Man

RIP Craig Sager.

Disc I 

01 Greeting
02 Monday Meters
03 Way Out West
04 MRG
05 Minx
06 Flimsy
07 Vandy
08 Sitting My Knees >
09 Drum Solo >
10 Sitting My Knees
11 SF

Disc II 

01 *#Hey Fela
02 *#It Ain'y Fair But It's Fun
03 *@Never Did I Stop Loving You
04 ^I Am Somebody
05 +One Note Brown
Encore:
06 Eddie Banter
07 $The Rules

* With The Turkuaz Horn Section
# With Jonathan Lloyd On Trombone
@ With Shira On Vocals
^ With Greg Samson On Saxophone
+ First Time Played
$ Entire Turkuaz Band Minus Bass Player And Drummer

Eddie Roberts - Guitar
Pete Shand - Bass
Joe Tatton - Keyboards
Alan Evans - Drums (In Place Of Simon Allen)

thenew2916012015d01t01.flac:82057cb7c4b5a63fde71c0d46542d42b
thenew2916012015d01t02.flac:bff1fc48238e1f1541e3559d30a489ce
thenew2916012015d01t03.flac:f47429ca465c6ad219fb802451730604
thenew2916012015d01t04.flac:08195763a5ba5f39464f3c241555dac3
thenew2916012015d01t05.flac:7018efcbcd3702f211799d6060ab1ec3
thenew2916012015d01t06.flac:a394fcd0f9fd0ad3b6fa0f42f331a052
thenew2916012015d01t07.flac:f29fc4c7ff57070d977f77c332f800b0
thenew2916012015d01t08.flac:1ca69bb5d099e63bf13e51296a4c95a0
thenew2916012015d01t09.flac:d5735d5ddb3e795e483894bd611f8f52
thenew2916012015d01t10.flac:73e9104783548ada2b1c1dc2642104d6
thenew2916012015d01t11.flac:72ca422341a35688bd10bd9a04fc5d96
thenew2916012015d02t01.flac:9658b7484a21e0f12e796dda5d79f70b
thenew2916012015d02t02.flac:0a39cd75657e9149b6fd1cacb6fb93de
thenew2916012015d02t03.flac:747c25d07360a671c0505254fd07b324
thenew2916012015d02t04.flac:75030d43372a75adbf3a89b331506990
thenew2916012015d02t05.flac:98858e4ff92154c2dd756d8d4ce6d6c1
thenew2916012015d02t06.flac:eb5c13a938380b7e41ebf16b4c86313c
thenew2916012015d02t07.flac:7c5e43737a4842cf62e2219d2910b40b

 length     expanded size    cdr  WAVE problems  fmt   ratio  filename
     1:38.31       17360156 B   ---   --   ---xx   flac  0.3590  thenew2916012015d01t01.flac
     7:34.39       80177372 B   ---   --   ---xx   flac  0.5689  thenew2916012015d01t02.flac
     5:26.37       57593468 B   ---   --   ---xx   flac  0.5144  thenew2916012015d01t03.flac
     7:55.34       83870012 B   ---   --   ---xx   flac  0.5645  thenew2916012015d01t04.flac
     6:01.45       63786284 B   ---   --   ---xx   flac  0.5595  thenew2916012015d01t05.flac
     7:22.01       77971196 B   ---   --   ---xx   flac  0.5343  thenew2916012015d01t06.flac
     5:09.43       54608780 B   ---   --   ---xx   flac  0.5164  thenew2916012015d01t07.flac
     3:15.31       34470956 B   ---   --   ---xx   flac  0.5623  thenew2916012015d01t08.flac
     0:55.69        9864332 B   ---   --   ---xx   flac  0.5865  thenew2916012015d01t09.flac
     2:09.52       22877948 B   ---   --   ---xx   flac  0.5687  thenew2916012015d01t10.flac
     6:56.10       73405964 B   ---   --   ---xx   flac  0.5655  thenew2916012015d01t11.flac
     7:56.48       84079340 B   ---   --   ---xx   flac  0.5318  thenew2916012015d02t01.flac
     8:34.03       90676700 B   ---   --   ---xx   flac  0.5611  thenew2916012015d02t02.flac
     5:21.45       56730284 B   ---   --   ---xx   flac  0.5644  thenew2916012015d02t03.flac
     7:03.27       74680748 B   ---   --   ---xx   flac  0.5653  thenew2916012015d02t04.flac
     6:11.49       65559692 B   ---   --   ---xx   flac  0.5581  thenew2916012015d02t05.flac
     0:57.41       10151276 B   ---   --   ---xx   flac  0.3837  thenew2916012015d02t06.flac
     7:04.52       74915948 B   ---   --   ---xx   flac  0.5679  thenew2916012015d02t07.flac
    97:34.57     1032780456 B                            0.5489  (18 files)


















More information about the bittorrent mailing list