[bittorrent] Joe Craven Christmas Concert Frank Hamilton School Oakhurst Baptist Church Decatur, Georgia 12/14/2016 (Schoeps CCM4V'S FOB)

Automated Mailer noreply-bt.e at etree.org
Thu Dec 15 23:59:25 UTC 2016


Band:           Other
Torrent Name:   Joe Craven Christmas Concert Frank Hamilton School Oakhurst Baptist Church Decatur, Georgia 12/14/2016 (Schoeps CCM4V'S FOB)
Uploaded by:    zmanatl
DB Link:        
Details:        http://bt.etree.org/details.php?id=590368

Contact the seeder at http://db.etree.org/zmanatl

If the link to this show does not work, it was probably removed for
being non-trade-friendly.

Description / text file:
-------------------------
Joe Craven Christmas Concert
Frank Hamilton School
Oakhurst Baptist Church
Decatur, Georgia
12/14/2016 

Source: Schoeps CCM4V's>Lunatec V2>Benchmark AD2K>
Sound Devices 722 (24/44)
FOB/DFC/KFC/ZFC/AARP 8' From Stage, 5' High
DSP: Sound Devices 722>Sound Forge 10.0>CD Wave>flac(16)
ID3 Tagged In Foobar 2000
Recorded By: Z-Man
Seeded By: Z-Man

Disc I 

01 Greeting/Announcements Bob Bakert
02 Joe Craven Banter/Introduce Frank Hamilton
03 Frank Hamilton Banter
Frank Hamilton On BanJo Solo: 
04 My Rainbow Race
05 Kingdom Coming
06 In The Evening By The Moonlight
07 Passing Through
08 Frank Introduces Old Town School Of Folk Music Folks
09 Mark Dvorak Banter
Mark Dvorak, Maura Lolly, Peggy Browning, And Jason McGinnis:
10 Good Time Tonight
11 Buckeye Jim
12 Little Birdie
13 Old Friends (With Frank Hamilton)
14 Joe Craven Banter/Introduce Henry Family
Henry Family: 
15 Goin' Down The Road Feelin' Bad
16 You Ain't Goin' Nowhere
17 Joe Craven Banter/Introduce Jason Koornik And Jared Womack
18 Walk A Mile In My Shoes
19 I'm Blue, I'm Lonesome Too

Disc II
 
01 Joe Craven Banter/Introduce Bonaventure Quartet Members
02 Charles Williams Banter/Tuning
03 ?
04 It's DJango (With Joe Craven)
05 Rudolph The Red-Nosed Reindeer > (With Joe Craven)
06 Jingle Bells > (With Joe Craven)
07 Frosty The Snowman (With Joe Craven)
08 What Is Santa Bringing (With Joe Craven)
09 Joe Craven Banter
10 Merry Christmas To You (Mick Kinney, Joe Craven, And Bob Bakert)
11 Midnight (Mick Kinney Solo On Piano)
Mick Kinney, Evan Kinney, Guarav Malhotra, And Joe Craven:
12 Jesus Christ Was Born On Christmas Morning
13 ?
14 Joe Craven Banter
Guarav Malhotra, And Joe Craven:
15 Instrumental >
16 Freestyle With Rap
EVERYONE:
17 I'll Fly Away

joe2016-12-14d01t01.flac:a1662c9a7bd599a3f38d0de2bed25899
joe2016-12-14d01t02.flac:cd69d040a530818c35c004dfca0f82cb
joe2016-12-14d01t03.flac:1979e551dccfa5df6e33d65704fdb0fa
joe2016-12-14d01t04.flac:b94837295f8bb2fef359fb09969f1be9
joe2016-12-14d01t05.flac:713f2f70372ce0985f4bcdb45e7c024d
joe2016-12-14d01t06.flac:69cc14e0c997a6c5dc1786fb896be17b
joe2016-12-14d01t07.flac:e991c6b96535b13f890d7965b65fb053
joe2016-12-14d01t08.flac:6b9032d89813fd33b2aa5cf7840eaaa1
joe2016-12-14d01t09.flac:236aed2860a6d7693b7af9fced63c515
joe2016-12-14d01t10.flac:985b9f33de7877cdbce828eb47ce2486
joe2016-12-14d01t11.flac:80fff50cb71ff6b4d76202a6667515d5
joe2016-12-14d01t12.flac:316251525a621f51d1c98d19d4e7b428
joe2016-12-14d01t13.flac:3b89760686a0cf5c42c02b916a763edb
joe2016-12-14d01t14.flac:6a633477e68d31c52cbf80b1cb696f1f
joe2016-12-14d01t15.flac:db30b11dc04d287ea9f6a1b9ab7d77b0
joe2016-12-14d01t16.flac:1246c7e6f0aa92f6275a69d54f449457
joe2016-12-14d01t17.flac:593aa2a57616c934e960bee20b256dd3
joe2016-12-14d01t18.flac:8d3ebfe1383c07de2a684d552feb494f
joe2016-12-14d01t19.flac:2e7eb55b0585e75f6dafe0e632e1727d
joe2016-12-14d02t01.flac:d8ebf339640add43da550cc3ec67dd97
joe2016-12-14d02t02.flac:84e9c802750b93a2a776ef037ca96092
joe2016-12-14d02t03.flac:5ab40f0a9d5cf98bb563337587c70657
joe2016-12-14d02t04.flac:bd9e5d3a55efd3631ad00b23da9ce44d
joe2016-12-14d02t05.flac:c3681499615a15c2b459a791741ef2bf
joe2016-12-14d02t06.flac:a5d9beef2bbbee092a93d2016e3f9a06
joe2016-12-14d02t07.flac:c5e3b74454a93b13baed04d52e57aa93
joe2016-12-14d02t08.flac:9740add21f09f8d7fecfc1a3b0374332
joe2016-12-14d02t09.flac:b2b60134e4e7c2b20a3cd9c2fbaf52ff
joe2016-12-14d02t10.flac:0648ed18109ea215ab396cfd6587ed9f
joe2016-12-14d02t11.flac:674dc82df6b8f93492b0b61c83b5bda4
joe2016-12-14d02t12.flac:40e382bf280c68f5cd17c9caf8868909
joe2016-12-14d02t13.flac:e4a5394d37c224bfdcd744225ba53671
joe2016-12-14d02t14.flac:b9c8d33fbd0c60e9d256c6ad26c3b1f6
joe2016-12-14d02t15.flac:0279ded83f8a1443a85fa4bd388f43dc
joe2016-12-14d02t16.flac:ee7cc79ca5dc9ebef39bce7558b95a51
joe2016-12-14d02t17.flac:e4c091438234084c088ec36c5f117fa4

  length     expanded size    cdr  WAVE problems  fmt   ratio  filename
     4:58.69       52729532 B   ---   --   ---xx   flac  0.2590  joe2016-12-14d01t01.flac
     3:58.03       41990300 B   ---   --   ---xx   flac  0.2865  joe2016-12-14d01t02.flac
     1:07.23       11872940 B   ---   --   ---xx   flac  0.2727  joe2016-12-14d01t03.flac
     4:15.52       45104348 B   ---   --   ---xx   flac  0.3010  joe2016-12-14d01t04.flac
     4:36.17       48726428 B   ---   --   ---xx   flac  0.3547  joe2016-12-14d01t05.flac
     3:32.24       37453292 B   ---   --   ---xx   flac  0.2947  joe2016-12-14d01t06.flac
     4:17.62       45480668 B   ---   --   ---xx   flac  0.3518  joe2016-12-14d01t07.flac
     0:59.40       10501724 B   ---   --   ---xx   flac  0.3342  joe2016-12-14d01t08.flac
     0:50.73        8991740 B   ---   --   ---xx   flac  0.3036  joe2016-12-14d01t09.flac
     4:11.05       44288204 B   ---   --   ---xx   flac  0.3448  joe2016-12-14d01t10.flac
     5:07.02       54159548 B   ---   --   ---xx   flac  0.2894  joe2016-12-14d01t11.flac
     6:39.26       70444796 B   ---   --   ---xx   flac  0.3214  joe2016-12-14d01t12.flac
     3:47.72       40212188 B   ---   --   ---xx   flac  0.3852  joe2016-12-14d01t13.flac
     3:02.28       32170700 B   ---   --   ---xx   flac  0.3029  joe2016-12-14d01t14.flac
     4:21.01       46042796 B   ---   --   ---xx   flac  0.4178  joe2016-12-14d01t15.flac
     3:48.36       40303916 B   ---   --   ---xx   flac  0.4055  joe2016-12-14d01t16.flac
     4:10.08       44118860 B   ---   --   ---xx   flac  0.2998  joe2016-12-14d01t17.flac
     6:18.10       66702764 B   ---   --   ---xx   flac  0.3972  joe2016-12-14d01t18.flac
     3:35.01       37928396 B   ---   --   ---xx   flac  0.3956  joe2016-12-14d01t19.flac
     1:36.00       16934444 B   ---   --   ---xx   flac  0.3412  joe2016-12-14d02t01.flac
     1:08.43       12096380 B   ---   --   ---xx   flac  0.3282  joe2016-12-14d02t02.flac
     5:13.30       55283804 B   ---   --   ---xx   flac  0.3610  joe2016-12-14d02t03.flac
     5:26.30       57577004 B   ---   --   ---xx   flac  0.3733  joe2016-12-14d02t04.flac
     0:47.29        8359052 B   ---   --   ---xx   flac  0.4168  joe2016-12-14d02t05.flac
     0:27.00        4762844 B   ---   --   ---xx   flac  0.4090  joe2016-12-14d02t06.flac
     3:36.48       38215340 B   ---   --   ---xx   flac  0.3835  joe2016-12-14d02t07.flac
     2:36.66       27673676 B   ---   --   ---xx   flac  0.4625  joe2016-12-14d02t08.flac
     2:38.62       28017068 B   ---   --   ---xx   flac  0.3746  joe2016-12-14d02t09.flac
     6:27.44       68370332 B   ---   --   ---xx   flac  0.3415  joe2016-12-14d02t10.flac
     5:16.22       55794188 B   ---   --   ---xx   flac  0.3272  joe2016-12-14d02t11.flac
     5:18.21       56144636 B   ---   --   ---xx   flac  0.4199  joe2016-12-14d02t12.flac
     3:40.74       38982092 B   ---   --   ---xx   flac  0.4400  joe2016-12-14d02t13.flac
     3:10.62       33661868 B   ---   --   ---xx   flac  0.3171  joe2016-12-14d02t14.flac
     2:45.32       29181308 B   ---   --   ---xx   flac  0.3793  joe2016-12-14d02t15.flac
     7:32.19       79777532 B   ---   --   ---xx   flac  0.3982  joe2016-12-14d02t16.flac
     4:31.17       47844428 B   ---   --   ---xx   flac  0.4703  joe2016-12-14d02t17.flac
   135:51.26     1437899136 B                            0.3582  (36 files)











More information about the bittorrent mailing list