[bittorrent] gd1977-10-30.137374.mtx.dusborne.flac16

Automated Mailer noreply-bt.e at etree.org
Thu Dec 15 18:04:47 UTC 2016


Band:           Grateful Dead
Torrent Name:   gd1977-10-30.137374.mtx.dusborne.flac16
Uploaded by:    greendude
DB Link:        
Details:        http://bt.etree.org/details.php?id=590366

Contact the seeder at http://db.etree.org/greendude

If the link to this show does not work, it was probably removed for
being non-trade-friendly.

Description / text file:
-------------------------
Grateful Dead 
October 30, 1977
Assembly Hall 
Bloomington, IN

2 Source Matrix

Soundboard (shnid:99838)
--------------------------------------------------------------------------------
gd77-10-30.sbd-fix.miller.99838.sbeok.flac16

Recording Info:
SBD -> Master Reel -> PCM -> Dat

Transfer Info:
Dat -> Samplitude Professional v10.21 -> FLAC
(2 Discs Audio / 2 Discs FLAC)

All Transfers and Mastering By Charlie Miller
charliemiller87 at earthlink.net
June 26, 2009

Patch Info:
Sony ECM-990 -> Master Cassette -> Reel -> CD supplies:
Wharf Rat (10:34 - 10:58)

Notes:
-- Disc change is seamless
-- Set 2 tuning track created for disc change purposes
-- Thanks to David Minches for the patch source


Audience (shnid:100165)
-------------------------------------------------------------------------------
gd77-10-30.sonyecm990.maizner.minches.100165.flac16

Recorded by Steve Maizner
Sony ECM-990> Master Cassette

Transfer and FLAC encoding by David Minches:
Master cassette> reel> FLAC
1st generation reel played back on Akai Gx-4000D> ART DI/O > Digital Audio Labs Card Deluxe soundcard > Adobe Audition> flac encoding > FLAC

Pitch correction by Joe B. Jones
---------------------------------------------------------------------------------
---Thank you Charlie Miller for your work on the SBD.
---Thank you Steve Maizner fpr recording the show.
---Thank you David Minches for your work on the AUD.
---Thank you Joe B. Jones for pitch correction.
---Thank you XJ32 for the art work.
---Thank you Germain for your advice, encouragement, guidance and seeding.

Matrix by dusborne

11-30-2016
------------------------------------------------------------------------------

Set 1
101 - gd77-10-30s1t01 - Tuning
102 - gd77-10-30s1t02 - New Minglewood Blues
103 - gd77-10-30s1t03 - They Love Each Other
104 - gd77-10-30s1t04 - Mama Tried ->
105 - gd77-10-30s1t05 - Me & My Uncle
106 - gd77-10-30s1t06 - Tennessee Jed
107 - gd77-10-30s1t07 - Passenger
108 - gd77-10-30s1t08 - Candyman
109 - gd77-10-30s1t09 - Lazy Lightnin' ->
110 - gd77-10-30s1t10 - Supplication
111 - gd77-10-30s1t11 - Deal

Set 2
201 - gd77-10-30s2t01 - Tuning
202 - gd77-10-30s2t02 - Samson & Delilah
203 - gd77-10-30s2t03 - Peggy-O
204 - gd77-10-30s2t04 - Playing in the Band ->
205 - gd77-10-30s2t05 - The Other One ->
206 - gd77-10-30s2t06 - Drums ->
207 - gd77-10-30s2t07 - The Wheel ->
208 - gd77-10-30s2t08 - Wharf Rat ->
209 - gd77-10-30s2t09 - Playing in the Band

Encore
210 - gd77-10-30s2t10 - Johnny B. Goode
-------------------------------------------------------------------------------
Tagging notes:
Show information is embedded within the header of each flac file. 
It will display on any player capable of directly playing flac 
files. If converted to wav during processing, all tags will be 
stripped, however audio data will remain unaffected. If you must 
transcode to a lossy format, do so directly Flac > Lossy.
Use ffp to validate audio integrity.
Md5 values will change if tagging is altered.
Dave Usborne 11-30-2016
---------------------------------------------------------------------------------

length     expanded size    cdr  WAVE problems  fmt   ratio  filename
     4:26.06       46936556 B   ---   --   ---xx   flac  0.4459  gd77-10-30s1t01.flac
     7:07.52       75445148 B   ---   --   ---xx   flac  0.6013  gd77-10-30s1t02.flac
    10:12.31      108029756 B   ---   --   ---xx   flac  0.5696  gd77-10-30s1t03.flac
     2:47.15       29494124 B   ---   --   ---xx   flac  0.6321  gd77-10-30s1t04.flac
     6:36.38       69943820 B   ---   --   ---xx   flac  0.5600  gd77-10-30s1t05.flac
    11:13.51      118837196 B   ---   --   ---xx   flac  0.5786  gd77-10-30s1t06.flac
     5:34.63       59065820 B   ---   --   ---xx   flac  0.6038  gd77-10-30s1t07.flac
    10:44.04      113611052 B   ---   --   ---xx   flac  0.5380  gd77-10-30s1t08.flac
     3:27.55       36644204 B   ---   --   ---xx   flac  0.6224  gd77-10-30s1t09.flac
     5:20.47       56558588 B   ---   --   ---xx   flac  0.6331  gd77-10-30s1t10.flac
     6:46.22       71670188 B   ---   --   ---xx   flac  0.6288  gd77-10-30s1t11.flac
     0:23.46        4165436 B   ---   --   ---xx   flac  0.4078  gd77-10-30s2t01.flac
    10:32.67      111642428 B   ---   --   ---xx   flac  0.5916  gd77-10-30s2t02.flac
    11:52.65      125749724 B   ---   --   ---xx   flac  0.5319  gd77-10-30s2t03.flac
    10:27.23      110656940 B   ---   --   ---xx   flac  0.6113  gd77-10-30s2t04.flac
    12:04.61      127857116 B   ---   --   ---xx   flac  0.6103  gd77-10-30s2t05.flac
     4:21.28       46106300 B   ---   --   ---xx   flac  0.5615  gd77-10-30s2t06.flac
     7:35.50       80379644 B   ---   --   ---xx   flac  0.5908  gd77-10-30s2t07.flac
    11:54.54      126076652 B   ---   --   ---xx   flac  0.5678  gd77-10-30s2t08.flac
     8:36.55       91151804 B   ---   --   ---xx   flac  0.5479  gd77-10-30s2t09.flac
     5:04.06       53639756 B   ---   --   ---xx   flac  0.6345  gd77-10-30s2t10.flac
   157:11.14     1663662252 B                            0.5795  (21 files)



More information about the bittorrent mailing list