[bittorrent] JackieGreene.2016-12-09.mk4.miller.flac24

Automated Mailer noreply-bt.e at etree.org
Thu Dec 15 18:01:27 UTC 2016


Band:           Jackie Greene
Torrent Name:   JackieGreene.2016-12-09.mk4.miller.flac24
Uploaded by:    greendude
DB Link:        
Details:        http://bt.etree.org/details.php?id=590365

Contact the seeder at http://db.etree.org/greendude

If the link to this show does not work, it was probably removed for
being non-trade-friendly.

Description / text file:
-------------------------
Jackie Greene - December 9, 2016
Belly Up Tavern - Solana Beach, CA

Recording Info:
Schoeps CMC6/MK4 > Lunatec V2 > Sound Devices 744T > WAV (24-bit/96k)

Mastering Info:
WAV > Samplitude Pro X3 Suite > FLAC/24
(1 DVD FLAC)

Recorded By Charlie Miller
charliemiller87 at earthlink.net
December 10, 2016

Notes:
-- First show with my new pre-amp
-- Lots of teases in the China Rider jam
-- Big thanks to Jackie Greene and his crew

Setlist:
01 - Tuning
02 - Gone Wonderin'
03 - One Bad Love
04 - Light Up Your Window
05 - I'm So Gone
06 - Spooky Tina
07 - Silver Lining
08 - A Moment Of Temporary Color >
09 - New Speedway Boogie
10 - Shaken
11 - You Can't Have Bad Luck All The Time
12 - Trust Somebody
13 - Band Intros
14 - Tell Me Mama, Tell Me Right
15 - Medicated Goo
16 - Mexican Girl
17 - Back To The Bottom

Encore:
18 - Encore Break
19 - China Cat Sunflower >
20 - I Know You Rider


SHNTOOL OUTPUT:
    length     expanded size    cdr  WAVE problems  fmt   ratio  filename
     1:00.807      35025140 B   cxx   --   ---xx   flac  0.5295  01 Tuning.flac
     3:39.711     126553304 B   cxx   --   ---xx   flac  0.6224  02 Gone Wanderin'.flac
     3:53.306     134384534 B   cxx   --   ---xx   flac  0.6273  03 One Bad Love.flac
     4:08.101     142906004 B   cxx   --   ---xx   flac  0.6601  04 Light Up Your Window.flac
     6:12.634     214637498 B   cxx   --   ---xx   flac  0.6549  05 I'm So Gone.flac
     3:45.935     130138796 B   cxx   --   ---xx   flac  0.6475  06 Spooky Tina.flac
     5:31.798     191115494 B   cxx   --   ---xx   flac  0.6517  07 Silver Lining.flac
     7:11.831     248734652 B   cxx   --   ---xx   flac  0.6294  08 A Moment Of Temporary Color.flac
    17:26.432     602745008 B   cxx   --   ---xx   flac  0.6397  09 New Speedway Boogie.flac
     4:18.710     149017190 B   cxx   --   ---xx   flac  0.6341  10 Shaken.flac
     5:48.459     200712440 B   cxx   --   ---xx   flac  0.6010  11 You Can't Have Bad Luck All The Time.flac
     5:33.950     192355514 B   cxx   --   ---xx   flac  0.6244  12 Trust Somebody.flac
     0:57.399      33062108 B   cxx   --   ---xx   flac  0.5484  13 Band Intros.flac
    11:07.269     384347006 B   cxx   --   ---xx   flac  0.6015  14 Tell Me Mama, Tell Me Right.flac
     5:34.710     192793178 B   cxx   --   ---xx   flac  0.6556  15 Medicated Goo.flac
     6:17.415     217391162 B   cxx   --   ---xx   flac  0.6278  16 Mexican Girl.flac
     6:51.019     236747048 B   cxx   --   ---xx   flac  0.6585  17 Back To The Bottom.flac
     2:07.047      73179398 B   cxx   --   ---xx   flac  0.5273  18 Encore Break.flac
     8:41.430     300343736 B   cxx   --   ---xx   flac  0.6441  19 China Cat Sunflower.flac
     7:56.701     274579910 B   cxx   --   ---xx   flac  0.6541  20 I Know You Rider.flac
   118:04.667    4080769120 B                            0.6328  (20 files)




More information about the bittorrent mailing list