[bittorrent] JackieGreene.2016-12-09.mk4.miller.flac16

Automated Mailer noreply-bt.e at etree.org
Thu Dec 15 17:57:55 UTC 2016


Band:           Jackie Greene
Torrent Name:   JackieGreene.2016-12-09.mk4.miller.flac16
Uploaded by:    greendude
DB Link:        
Details:        http://bt.etree.org/details.php?id=590364

Contact the seeder at http://db.etree.org/greendude

If the link to this show does not work, it was probably removed for
being non-trade-friendly.

Description / text file:
-------------------------
Jackie Greene - December 9, 2016
Belly Up Tavern - Solana Beach, CA

Recording Info:
Schoeps CMC6/MK4 > Lunatec V2 > Sound Devices 744T > WAV (24-bit/96k)

Mastering Info:
WAV > Samplitude Pro X3 Suite > FLAC/16
(2 Discs Audio / 1 DVD FLAC)

Recorded By Charlie Miller
charliemiller87 at earthlink.net
December 10, 2016

Notes:
-- First show with my new pre-amp
-- Lots of teases in the China Rider jam
-- Big thanks to Jackie Greene and his crew

Setlist:
01 - Tuning
02 - Gone Wonderin'
03 - One Bad Love
04 - Light Up Your Window
05 - I'm So Gone
06 - Spooky Tina
07 - Silver Lining
08 - A Moment Of Temporary Color >
09 - New Speedway Boogie
10 - Shaken
11 - You Can't Have Bad Luck All The Time
12 - Trust Somebody
13 - Band Intros
14 - Tell Me Mama, Tell Me Right
15 - Medicated Goo
16 - Mexican Girl
17 - Back To The Bottom

Encore:
18 - Encore Break
19 - China Cat Sunflower >
20 - I Know You Rider


SHNTOOL OUTPUT:
    length     expanded size    cdr  WAVE problems  fmt   ratio  filename
     1:00.60       10725164 B   ---   --   ---xx   flac  0.4665  01 Tuning.flac
     3:39.53       38756300 B   ---   --   ---xx   flac  0.5573  02 Gone Wanderin'.flac
     3:53.23       41155340 B   ---   --   ---xx   flac  0.5745  03 One Bad Love.flac
     4:08.08       43766060 B   ---   --   ---xx   flac  0.6187  04 Light Up Your Window.flac
     6:12.47       65731388 B   ---   --   ---xx   flac  0.6004  05 I'm So Gone.flac
     3:45.71       39857036 B   ---   --   ---xx   flac  0.6091  06 Spooky Tina.flac
     5:31.59       58527212 B   ---   --   ---xx   flac  0.6055  07 Silver Lining.flac
     7:11.63       76176620 B   ---   --   ---xx   flac  0.5706  08 A Moment Of Temporary Color.flac
    17:26.32      184589708 B   ---   --   ---xx   flac  0.5915  09 New Speedway Boogie.flac
     4:18.53       45635900 B   ---   --   ---xx   flac  0.5779  10 Shaken.flac
     5:48.35       61469564 B   ---   --   ---xx   flac  0.5404  11 You Can't Have Bad Luck All The Time.flac
     5:33.71       58908236 B   ---   --   ---xx   flac  0.5771  12 Trust Somebody.flac
     0:57.30       10125404 B   ---   --   ---xx   flac  0.4990  13 Band Intros.flac
    11:07.20      117705884 B   ---   --   ---xx   flac  0.5396  14 Tell Me Mama, Tell Me Right.flac
     5:34.54       59044652 B   ---   --   ---xx   flac  0.6233  15 Medicated Goo.flac
     6:17.31       66575756 B   ---   --   ---xx   flac  0.5818  16 Mexican Girl.flac
     6:51.01       72502796 B   ---   --   ---xx   flac  0.6256  17 Back To The Bottom.flac
     2:07.04       22412252 B   ---   --   ---xx   flac  0.4720  18 Encore Break.flac
     8:41.32       91979708 B   ---   --   ---xx   flac  0.5977  19 China Cat Sunflower.flac
     7:56.54       84093452 B   ---   --   ---xx   flac  0.6201  20 I Know You Rider.flac
   118:04.51     1249738432 B                            0.5840  (20 files)




More information about the bittorrent mailing list