[bittorrent] JackieGreene.2008-06-06.matrix.miller.flac16

Automated Mailer noreply-bt.e at etree.org
Thu Dec 15 17:54:25 UTC 2016


Band:           Jackie Greene
Torrent Name:   JackieGreene.2008-06-06.matrix.miller.flac16
Uploaded by:    greendude
DB Link:        
Details:        http://bt.etree.org/details.php?id=590363

Contact the seeder at http://db.etree.org/greendude

If the link to this show does not work, it was probably removed for
being non-trade-friendly.

Description / text file:
-------------------------
Jackie Greene - June 6, 2008
Health And Harmony Festival
Sonoma County Fairgrounds - Santa Rosa, CA

Recording Info:
SBD + (Stage) Schoeps CMC6/MK4 -> Sound Devices 744T (24bit/44.1k) ->
Samplitude Professional v11.2.1 -> FLAC/16
(1 Disc Audio / 1 Disc FLAC)

Recorded and Mixed By Charlie Miller
charliemiller87 at earthlink.net
October 30, 2015

Notes:
-- With Barry Sless

Setlist:
01 - Introduction
02 - Farewell, So Long, Goodbye
03 - Don't Let The Devil Take Your Mind
04 - Gone Wanderin'
05 - Uphill Mountain
06 - I'm So Gone
07 - Shaken
08 - Hollywood
09 - Rusty Nail ->
10 - New Speedway Boogie
11 - Like A Ball And Chain


SHNTOOL OUTPUT:
    length     expanded size    cdr  WAVE problems  fmt   ratio  filename
     1:14.60       13194764 B   ---   --   ---xx   flac  0.3747  01 - Introduction.flac
     4:43.49       50036492 B   ---   --   ---xx   flac  0.5599  02 - Farewell, So Long, Goodbye.flac
     7:23.67       78302828 B   ---   --   ---xx   flac  0.5093  03 - Don't Let The Devil Take Your Mind.flac
     4:05.11       43243916 B   ---   --   ---xx   flac  0.5319  04 - Gone Wanderin'.flac
     4:35.13       48540620 B   ---   --   ---xx   flac  0.5333  05 - Uphill Mountain.flac
     5:42.61       60472316 B   ---   --   ---xx   flac  0.5329  06 - I'm So Gone.flac
     5:26.05       57518204 B   ---   --   ---xx   flac  0.4787  07 - Shaken.flac
     7:57.03       84149900 B   ---   --   ---xx   flac  0.5324  08 - Hollywood.flac
     5:18.23       56149340 B   ---   --   ---xx   flac  0.4655  09 - Rusty Nail.flac
     6:55.03       73213100 B   ---   --   ---xx   flac  0.5146  10 - New Speedway Boogie.flac
     6:45.29       71510252 B   ---   --   ---xx   flac  0.5467  11 - Like A Ball And Chain.flac
    60:07.24      636331732 B                            0.5173  (11 files)




More information about the bittorrent mailing list