[bittorrent] gd1983-04-17.137378.set1.m160.miller.flac16

Automated Mailer noreply-bt.e at etree.org
Thu Dec 15 00:02:03 UTC 2016


Band:           Grateful Dead
Torrent Name:   gd1983-04-17.137378.set1.m160.miller.flac16
Uploaded by:    greendude
DB Link:        
Details:        http://bt.etree.org/details.php?id=590345

Contact the seeder at http://db.etree.org/greendude

If the link to this show does not work, it was probably removed for
being non-trade-friendly.

Description / text file:
-------------------------
Grateful Dead - April 17, 1983
Brendan Byrne Arena - East Rutherford, NJ

Recording Info:
(FOB) 3 Beyer M160's > Sony TC-D5M > Cassette Master (Sony WM-D6 Patched)

Transfer Info:
Cassette Master (Nakamichi DR-1) > Tascam DA-3000 (DSF 1-bit/5.8 MHz) >
KORG AudioGate 4 > Adobe Audition CC 2015 > Samplitude Pro X3 Suite > FLAC/24
(1 Disc FLAC)

Recorded By Charlie Miller
charliemiller87 at earthlink.net
December 13, 2016

Notes:
-- Really bad PA problems for the first few songs
-- This is a far superior transfer than my previous attempt (shnid=23852)
-- Recorded 2 rows in front of sbd about 10 feet to the left
-- I lost my second set tape
-- Thanks to Joe B. Jones for his help with the pitch correction

**This fileset is 16bits @ 44.1**
  24bits > 16bits with r8brain

Set One:
01 - Tuning
02 - Touch Of Grey >
03 - Little Red Rooster
04 - Dupree's Diamond Blues >
05 - Beat It On Down The Line
06 - It Must Have Been The Roses
07 - Cassidy
08 - Big Railroad Blues
09 - My Brother Esau
10 - Peggy-O >
11 - Let It Grow >
12 - Might As Well

Encore:
13 - Not Fade Away
14 - Brokedown Palace


SHNTOOL OUTPUT:
    length     expanded size    cdr  WAVE problems  fmt   ratio  filename
     0:57.02       10059548 B   ---   --   ---xx   flac  0.5560  01 Tuning.flac
     6:13.05       65809004 B   ---   --   ---xx   flac  0.6276  02 Touch Of Grey.flac
     9:33.26      101138396 B   ---   --   ---xx   flac  0.6108  03 Little Red Rooster.flac
     6:19.63       67003820 B   ---   --   ---xx   flac  0.6177  04 Dupree's Diamond Blues.flac
     4:21.00       46040444 B   ---   --   ---xx   flac  0.6185  05 Beat It On Down The Line.flac
     5:11.74       55034492 B   ---   --   ---xx   flac  0.6099  06 It Must Have Been The Roses.flac
     5:54.16       62483276 B   ---   --   ---xx   flac  0.6278  07 Cassidy.flac
     5:29.30       58106204 B   ---   --   ---xx   flac  0.6491  08 Big Railroad Blues.flac
     5:18.40       56189324 B   ---   --   ---xx   flac  0.6176  09 My Brother Esau.flac
     7:59.22       84547388 B   ---   --   ---xx   flac  0.6272  10 Peggy-O.flac
    13:16.36      140499116 B   ---   --   ---xx   flac  0.6531  11 Let It Grow.flac
     4:22.53       46341500 B   ---   --   ---xx   flac  0.6605  12 Might As Well.flac
     2:28.08       26126060 B   ---   --   ---xx   flac  0.5735  13 Not Fade Away.flac
     5:24.64       57304172 B   ---   --   ---xx   flac  0.6225  14 Brokedown Palace.flac
    82:49.64      876682744 B                            0.6271  (14 files)





More information about the bittorrent mailing list