[bittorrent] gd1983-04-17.137377.set1.m160.miller.flac24

Automated Mailer noreply-bt.e at etree.org
Wed Dec 14 23:58:25 UTC 2016


Band:           Grateful Dead
Torrent Name:   gd1983-04-17.137377.set1.m160.miller.flac24
Uploaded by:    greendude
DB Link:        
Details:        http://bt.etree.org/details.php?id=590344

Contact the seeder at http://db.etree.org/greendude

If the link to this show does not work, it was probably removed for
being non-trade-friendly.

Description / text file:
-------------------------
Grateful Dead - April 17, 1983
Brendan Byrne Arena - East Rutherford, NJ

Recording Info:
(FOB) 3 Beyer M160's > Sony TC-D5M > Cassette Master (Sony WM-D6 Patched)

Transfer Info:
Cassette Master (Nakamichi DR-1) > Tascam DA-3000 (DSF 1-bit/5.8 MHz) >
KORG AudioGate 4 > Adobe Audition CC 2015 > Samplitude Pro X3 Suite > FLAC/24
(1 Disc FLAC)

Recorded By Charlie Miller
charliemiller87 at earthlink.net
December 13, 2016

Notes:
-- Really bad PA problems for the first few songs
-- This is a far superior transfer than my previous attempt (shnid=23852)
-- Recorded 2 rows in front of sbd about 10 feet to the left
-- I lost my second set tape
-- Thanks to Joe B. Jones for his help with the pitch correction

Set One:
01 - Tuning
02 - Touch Of Grey >
03 - Little Red Rooster
04 - Dupree's Diamond Blues >
05 - Beat It On Down The Line
06 - It Must Have Been The Roses
07 - Cassidy
08 - Big Railroad Blues
09 - My Brother Esau
10 - Peggy-O >
11 - Let It Grow >
12 - Might As Well

Encore:
13 - Not Fade Away
14 - Brokedown Palace


SHNTOOL OUTPUT:
    length     expanded size    cdr  WAVE problems  fmt   ratio  filename
     0:57.025      32846234 B   cxx   --   ---xx   flac  0.6606  01 Tuning.flac
     6:13.063     214884494 B   cxx   --   ---xx   flac  0.6886  02 Touch Of Grey.flac
     9:33.335     330241202 B   cxx   --   ---xx   flac  0.6790  03 Little Red Rooster.flac
     6:19.830     218782256 B   cxx   --   ---xx   flac  0.6829  04 Dupree's Diamond Blues.flac
     4:20.996     150333836 B   cxx   --   ---xx   flac  0.6837  05 Beat It On Down The Line.flac
     5:11.978     179699186 B   cxx   --   ---xx   flac  0.6803  06 It Must Have Been The Roses.flac
     5:54.212     204026246 B   cxx   --   ---xx   flac  0.6821  07 Cassidy.flac
     5:29.398     189733250 B   cxx   --   ---xx   flac  0.6910  08 Big Railroad Blues.flac
     5:18.531     183474158 B   cxx   --   ---xx   flac  0.6795  09 My Brother Esau.flac
     7:59.283     276066788 B   cxx   --   ---xx   flac  0.6887  10 Peggy-O.flac
    13:16.476     458770298 B   cxx   --   ---xx   flac  0.6940  11 Let It Grow.flac
     4:22.698     151314266 B   cxx   --   ---xx   flac  0.6974  12 Might As Well.flac
     2:28.096      85303598 B   cxx   --   ---xx   flac  0.6688  13 Not Fade Away.flac
     5:24.852     187114874 B   cxx   --   ---xx   flac  0.6818  14 Brokedown Palace.flac
    82:49.774    2862590686 B                            0.6854  (14 files)




More information about the bittorrent mailing list