[bittorrent] gd1977-10-29.137373.mtx.dusborne.flac16

Automated Mailer noreply-bt.e at etree.org
Wed Dec 14 23:54:35 UTC 2016


Band:           Grateful Dead
Torrent Name:   gd1977-10-29.137373.mtx.dusborne.flac16
Uploaded by:    greendude
DB Link:        
Details:        http://bt.etree.org/details.php?id=590343

Contact the seeder at http://db.etree.org/greendude

If the link to this show does not work, it was probably removed for
being non-trade-friendly.

Description / text file:
-------------------------
Grateful Dead  
October 29, 1977
Evans Field House  
Northern Illinois University
DeKalb, IL

2 Source Matrix

Soundboard (shnid:92085)
--------------------------------------------------------------------------------
gd77-10-29.sbd.miller.92085.sbeok.flac16

Recording Info:
SBD -> Master Reel -> PCM -> Dat -> CD

Transfer Info:
CD -> Samplitude Professional v10.02 -> FLAC
(3 Discs Audio / 2 Discs FLAC)

All Transfers and Mastering By Charlie Miller
charliemiller87 at earthlink.net
June 2, 2008

Patch Info:
Sony ECM-990 -> Cassette Master -> Reel -> Dat -> CD supplies:
Eyes Of The World (5:37 - 6:11)
Sugar Magnolia (2:30 - 2:58)

Notes:
-- Set 2 is seamless
-- Patch source was also remastered

Audience (shnid:108010)
-------------------------------------------------------------------------------
gd1977-10-29.ecm990.maizner.miller.108010.flac16

Recording Info:
Sony ECM-990 -> Cassette Master (Sony TC-158) -> AIFF

Transfer Info:
AIFF -> Adobe Audition v3.0 -> Samplitude Professional v11.03 -> FLAC
(3 Discs Audio / 2 Discs FLAC)

All Transfers and Mastering By Charlie Miller
charliemiller87 at earthlink.net
April 18, 2010

Notes:
-- Tracked by set, not by disc
-- Recorded By Steve Maizner
-- Thanks to Joe B. Jones for his help with the pitch correction
---------------------------------------------------------------------------------
---Thank you Charlie Miller for your work on the SBD and AUD.
---Thank you Steve Maizner fpr recording the show.
---Thank you XJ32 for the art work.
---Thank you Germain for your advice, encouragement, guidance and seeding.

Matrix by dusborne

11-30-2016
------------------------------------------------------------------------------

Set 1
101 - gd77-10-29s1t01 - Tuning
102 - gd77-10-29s1t02 - Might As Well
103 - gd77-10-29s1t03 - Jack Straw
104 - gd77-10-29s1t04 - Dire Wolf
105 - gd77-10-29s1t05 - Looks Like Rain
106 - gd77-10-29s1t06 - Loser
107 - gd77-10-29s1t07 - El Paso
108 - gd77-10-29s1t08 - Ramble On Rose
109 - gd77-10-29s1t09 - New Minglewood Blues
110 - gd77-10-29s1t10 - It Must Have Been The Roses
111 - gd77-10-29s1t11 - Let It Grow

Set 2
201 - gd77-10-29s2t01 - Tuning
202 - gd77-10-29s2t02 - Bertha ->
203 - gd77-10-29s2t03 - Good Lovin'
204 - gd77-10-29s2t04 - Friend Of The Devil
205 - gd77-10-29s2t05 - Estimated Prophet ->
206 - gd77-10-29s2t06 - Eyes Of The World ->
207 - gd77-10-29s2t07 - Space ->
208 - gd77-10-29s2t08 - Saint Stephen ->
209 - gd77-10-29s2t09 - Drums & Bass Jam ->
210 - gd77-10-29s2t10 - Not Fade Away ->
211 - gd77-10-29s2t11 - Black Peter ->
212 - gd77-10-29s2t12 - Sugar Magnolia

Encore:
213 - gd77-10-29s2t13 - One More Saturday Night
----------------------------------------------------------------------------------------------- 
               
Tagging notes:
Show information is embedded within the header of each flac file. 
It will display on any player capable of directly playing flac files. 
If converted to wav during processing, all tags will be stripped, 
however audio data will remain unaffected. 
If you must transcode to a lossy format, do so directly Flac > Lossy.
Use st5 to validate audio integrity.
Md5 values will change if tagging is altered.

Dave Usborne 11-30-2016
------------------------------------------------------------------------------------
length     expanded size    cdr  WAVE problems  fmt   ratio  filename
     1:09.63       12319820 B   ---   --   ---xx   flac  0.6116  gd77-10-29s1t01.flac
     8:25.73       89253740 B   ---   --   ---xx   flac  0.6299  gd77-10-29s1t02.flac
     8:27.31       89507756 B   ---   --   ---xx   flac  0.6140  gd77-10-29s1t03.flac
     5:18.00       56095244 B   ---   --   ---xx   flac  0.6077  gd77-10-29s1t04.flac
     9:28.06      100209356 B   ---   --   ---xx   flac  0.5837  gd77-10-29s1t05.flac
     9:41.06      102502556 B   ---   --   ---xx   flac  0.6007  gd77-10-29s1t06.flac
     5:50.35       61822364 B   ---   --   ---xx   flac  0.5928  gd77-10-29s1t07.flac
    10:02.72      106362188 B   ---   --   ---xx   flac  0.5885  gd77-10-29s1t08.flac
     6:33.42       69424028 B   ---   --   ---xx   flac  0.6346  gd77-10-29s1t09.flac
     9:22.10       99160364 B   ---   --   ---xx   flac  0.5786  gd77-10-29s1t10.flac
    13:16.56      140546156 B   ---   --   ---xx   flac  0.6235  gd77-10-29s1t11.flac
     1:33.03       16412300 B   ---   --   ---xx   flac  0.5583  gd77-10-29s2t01.flac
     7:50.62       83053868 B   ---   --   ---xx   flac  0.6284  gd77-10-29s2t02.flac
     8:26.63       89406620 B   ---   --   ---xx   flac  0.6276  gd77-10-29s2t03.flac
    10:45.69      113940332 B   ---   --   ---xx   flac  0.5898  gd77-10-29s2t04.flac
    11:22.30      120375404 B   ---   --   ---xx   flac  0.6066  gd77-10-29s2t05.flac
    13:51.60      146729564 B   ---   --   ---xx   flac  0.6340  gd77-10-29s2t06.flac
     7:12.64       76355372 B   ---   --   ---xx   flac  0.5041  gd77-10-29s2t07.flac
     8:14.55       87271004 B   ---   --   ---xx   flac  0.6204  gd77-10-29s2t08.flac
     2:59.10       31599164 B   ---   --   ---xx   flac  0.5689  gd77-10-29s2t09.flac
     7:39.13       80998220 B   ---   --   ---xx   flac  0.6251  gd77-10-29s2t10.flac
    12:28.37      132034268 B   ---   --   ---xx   flac  0.5714  gd77-10-29s2t11.flac
    14:46.16      156328076 B   ---   --   ---xx   flac  0.6466  gd77-10-29s2t12.flac
     5:28.09       57880412 B   ---   --   ---xx   flac  0.6390  gd77-10-29s2t13.flac
   200:15.60     2119588176 B                            0.6070  (24 files)



More information about the bittorrent mailing list