[bittorrent] gd1970-01-02.sbd.wise.sirmick.137375.sbeok.flac16 e

Automated Mailer noreply-bt.e at etree.org
Wed Dec 14 15:28:56 UTC 2016


Band:           Grateful Dead
Torrent Name:   gd1970-01-02.sbd.wise.sirmick.137375.sbeok.flac16 e
Uploaded by:    grateful darkstar
DB Link:        
Details:        http://bt.etree.org/details.php?id=590335

Contact the seeder at http://db.etree.org/grateful darkstar

If the link to this show does not work, it was probably removed for
being non-trade-friendly.

Description / text file:
-------------------------
Grateful Dead
Fillmore East
New York, NY   
1970-01-02


Source: Soundboard > 7 1/2' Reel Master @ 7.5 ips (Recorded By Bear on a Sony 770 Reel Deck) > 1st gen (TDK SAX-100 cassette) from Dick
        Latvala (Master Reel Playback on a Technics 1506 Reel to Reel > Tascam 122 MK111 Cassette Deck No dolby) > Analog to Digital
        (Cassettes played back on Nakamichi Dragon > Sony PCM-R700 DAT @ 44.1 by Jim Wise 1998)
Transfer: Zero Gen. DAT play back and transfer on a Sony PCM R-500 > Digital Audio Labs Carddeluxe > WAV @ 16/44.1
          Jim Wise April 5 2015

Lineage: Adobe Audition 3.0.1 > iZotope RX4 Advanced > iZotope Ozone 5 Advanced > CD Wave > TLH > Flac16

Early Show


01   //Masons Children
02   Casey Jones
03   Black Peter
04   tuning/banter
05   Mama Tried
06   Hard To Handle
07   Cumberland Blues
08   Cryptical Envelopment >
09   Drums >
10   The Other//One >
11   Cryptical Envelopment (Reprise) >
12   Cosmic Charlie//


Late Show

01   Uncle John's Band >
02   High Time
03   Dire Wolf
04   //Easy Wind
05   China Cat Sunflower//
06   I Know You Rider
07   //Good Lovin'
08   Me And My Uncle
09   broken string
10   Monkey And The Engineer
11   tuning
12   Dark Star//
13   //Saint Stephen >
14   The Eleven >
15   Turn On Your//Love Light



Comments:

- This has the same cuts as the sources that have been in circulation for some time. I haven't patched the start
  of the early show with the aud that is available because I don't think it would add anything to this gem.


Notes:

- Removed DC offset
- Azimuth adjustment
- Cross-faded the two parts of 'The Other One' together- Small patch of hum removed The Eleven
- Attenuated a small patch of hum during 'The Eleven'
- Pitch adjustment



Thanks to Jim for providing his copy of this show.


edited and mastered
SIRMick
December 2016



shntool output:

    length     expanded size    cdr  WAVE problems  fmt   ratio  filename
     6:08.01       64917596 B   ---   --   ---xx   flac  0.6273  gd1970-01-02et01.flac
     4:29.20       47498684 B   ---   --   ---xx   flac  0.5994  gd1970-01-02et02.flac
    11:03.14      116986172 B   ---   --   ---xx   flac  0.5080  gd1970-01-02et03.flac
     1:43.38       18258620 B   ---   --   ---xx   flac  0.4204  gd1970-01-02et04.flac
     2:39.18       28089980 B   ---   --   ---xx   flac  0.5891  gd1970-01-02et05.flac
     4:58.52       52689548 B   ---   --   ---xx   flac  0.6023  gd1970-01-02et06.flac
     5:46.56       61166156 B   ---   --   ---xx   flac  0.6022  gd1970-01-02et07.flac
     2:01.19       21389132 B   ---   --   ---xx   flac  0.5345  gd1970-01-02et08.flac
     3:57.41       41903276 B   ---   --   ---xx   flac  0.4859  gd1970-01-02et09.flac
    10:14.41      108406076 B   ---   --   ---xx   flac  0.6220  gd1970-01-02et10.flac
     1:58.70       20979884 B   ---   --   ---xx   flac  0.5369  gd1970-01-02et11.flac
     6:46.43       71719580 B   ---   --   ---xx   flac  0.5869  gd1970-01-02et12.flac
     7:18.47       77373788 B   ---   --   ---xx   flac  0.5786  gd1970-01-02lt01.flac
     7:25.04       78507452 B   ---   --   ---xx   flac  0.5207  gd1970-01-02lt02.flac
     4:17.15       45370124 B   ---   --   ---xx   flac  0.5671  gd1970-01-02lt03.flac
     7:18.72       77432588 B   ---   --   ---xx   flac  0.6240  gd1970-01-02lt04.flac
     3:36.61       38245916 B   ---   --   ---xx   flac  0.6362  gd1970-01-02lt05.flac
     2:01.40       21438524 B   ---   --   ---xx   flac  0.6210  gd1970-01-02lt06.flac
     7:30.21       79429436 B   ---   --   ---xx   flac  0.6080  gd1970-01-02lt07.flac
     3:05.34       32714012 B   ---   --   ---xx   flac  0.5979  gd1970-01-02lt08.flac
     1:43.43       18270380 B   ---   --   ---xx   flac  0.4609  gd1970-01-02lt09.flac
     1:33.69       16567532 B   ---   --   ---xx   flac  0.5786  gd1970-01-02lt10.flac
     1:57.21       20688236 B   ---   --   ---xx   flac  0.4618  gd1970-01-02lt11.flac
    29:57.52      317113148 B   ---   --   ---xx   flac  0.5292  gd1970-01-02lt12.flac
     5:14.18       55431980 B   ---   --   ---xx   flac  0.5376  gd1970-01-02lt13.flac
    12:20.31      130608956 B   ---   --   ---xx   flac  0.5984  gd1970-01-02lt14.flac
    23:04.41      244234076 B   ---   --   ---xx   flac  0.5903  gd1970-01-02lt15.flac
   180:13.07     1907430852 B                            0.5697  (27 files)



More information about the bittorrent mailing list