[bittorrent] George Price Darwin's Burgers And Blues Marietta, Georgia 12/12/2016 (Schoeps CCM4V'S FOB)

Automated Mailer noreply-bt.e at etree.org
Wed Dec 14 11:53:26 UTC 2016


Band:           Other
Torrent Name:   George Price Darwin's Burgers And Blues Marietta, Georgia 12/12/2016 (Schoeps CCM4V'S FOB)
Uploaded by:    zmanatl
DB Link:        
Details:        http://bt.etree.org/details.php?id=590330

Contact the seeder at http://db.etree.org/zmanatl

If the link to this show does not work, it was probably removed for
being non-trade-friendly.

Description / text file:
-------------------------
George Price Band
Darwin's Burgers And Blues
Marietta, Georgia
12/12/2016 

Source: Schoeps CCM4V's>Lunatec V2>Benchmark AD2K>
Sound Devices 722 (24/44)
FOB/DFC/KFC/ZFC/AARP Stage Lip, 6 1/2' High
DSP: Sound Devices 722>Sound Forge 10.0>CD Wave>flac(16)
ID3 Tagged In Foobar 2000
Recorded By: Z-Man
Seeded By: Z-Man

Disc I 

01 Greeting
02 Cosmic Debris
03 The Break Up Song 
04 Still Got The Blues (For You)
05 Keep Your Hands To Yourself
06 Crossroads
07 Banter
08 Things I Should Have Said
09 You Can Leave Your Hat On 
10 Hot Legs 
11 Too Much Stuff

george2016-12-12d01t01.flac:130aae921844762a02b4bf9fc225290f
george2016-12-12d01t02.flac:5ec983acc8052c8a6f15fa5bfb70a371
george2016-12-12d01t03.flac:3fda943945a4786118674b4c934645c2
george2016-12-12d01t04.flac:59100ab0ec979c17f006fc57ee385a34
george2016-12-12d01t05.flac:ed60d90db327fc7dd61dc2a9849458c4
george2016-12-12d01t06.flac:8b4e0c89ad0a03c82416ca4e3b3ca5b8
george2016-12-12d01t07.flac:fd7b366f3e35793ee5b939aa12ab3bd3
george2016-12-12d01t08.flac:a30498cf61fce762765ed6f2853d1bb8
george2016-12-12d01t09.flac:b44095ae90ef8512014d4ed9de286216
george2016-12-12d01t10.flac:947ebd297557c3a63b72db6cf039f106
george2016-12-12d01t11.flac:9b15704e81f48cbb804f0523fef38146

 length     expanded size    cdr  WAVE problems  fmt   ratio  filename
     0:52.01        9175196 B   ---   --   ---xx   flac  0.2875  george2016-12-12d01t01.flac
     7:11.40       76122524 B   ---   --   ---xx   flac  0.4851  george2016-12-12d01t02.flac
     4:55.19       52082732 B   ---   --   ---xx   flac  0.5224  george2016-12-12d01t03.flac
     6:13.39       65888972 B   ---   --   ---xx   flac  0.4311  george2016-12-12d01t04.flac
     4:21.62       46186268 B   ---   --   ---xx   flac  0.4828  george2016-12-12d01t05.flac
     3:33.18       37615580 B   ---   --   ---xx   flac  0.5220  george2016-12-12d01t06.flac
     1:59.56       21123356 B   ---   --   ---xx   flac  0.2291  george2016-12-12d01t07.flac
     7:47.24       82435292 B   ---   --   ---xx   flac  0.3632  george2016-12-12d01t08.flac
     6:25.39       68005772 B   ---   --   ---xx   flac  0.4608  george2016-12-12d01t09.flac
     5:24.36       57238316 B   ---   --   ---xx   flac  0.5088  george2016-12-12d01t10.flac
     6:30.28       68861900 B   ---   --   ---xx   flac  0.4975  george2016-12-12d01t11.flac
    55:14.62      584735908 B                            0.4560  (11 files)















More information about the bittorrent mailing list