[bittorrent] Gov't Mule And Friends Warren Haynes Christmas Pre-Jam Orange Peel Asheville, North Carolina 12/9/2016 (Schoeps 4V'S FOB)

Automated Mailer noreply-bt.e at etree.org
Wed Dec 14 04:27:58 UTC 2016


Band:           Govt Mule
Torrent Name:   Gov't Mule And Friends Warren Haynes Christmas Pre-Jam Orange Peel Asheville, North Carolina 12/9/2016 (Schoeps 4V'S FOB)
Uploaded by:    zmanatl
DB Link:        
Details:        http://bt.etree.org/details.php?id=590327

Contact the seeder at http://db.etree.org/zmanatl

If the link to this show does not work, it was probably removed for
being non-trade-friendly.

Description / text file:
-------------------------
ov't Mule And Friends
Warren Haynes Christmas Pre-Jam 
Orange Peel
Asheville, North Carolina
12/9/2016 

Source: Schoeps 4V's>Sound Devices 722 (24/44)
35' From Stage, 5 1/2' High
DSP: Sound Devices 722>Sound Forge 10.0>CD Wave>flac(16)
ID3 Tagged In Foobar 2000
Recorded By: Manofz
Seeded By: Manofz

Disc I 

01 Announcements
02 Warren Banter
03 *Hammer And Nails
04 *#Almost Cut My Hair
05 *#@Feel Like Breaking Up Somebody's Home
06 *#@%Soulshine
07 %$^+Same Thing >
08 %$^+Good Morning Little Schoolgirl >
09 %$^+Smokestack Lightnin'
Encore:
10 Martin Anderson Bring Em' Back 
11 %$Goin' Out West
12 Martin Anderson Outro

* With Rocky Leslie On Drums
# Mike Barne On Guitar
@ With Ike Stubblefield On Keyboards
% With Mark Mullins And The Levee Horns
$ With Duane Trucks On Drums
^ With Smokey Greenwell On Harmonica
+ With "Steady Rollin'" Bob Margolin On Guitar

govtmule2016-12-09d01t01.flac:1b057d9b5426c31e7e708f0f13c7253e
govtmule2016-12-09d01t02.flac:c75bcd0d07ad4db1ef771e1d8688ebef
govtmule2016-12-09d01t03.flac:d712818bf7376751f03089cf726044fa
govtmule2016-12-09d01t04.flac:f20cff378d725cc3bb8c1fb90b7f04c0
govtmule2016-12-09d01t05.flac:7cd5a2348e7b1ccffd4a64644df2bba7
govtmule2016-12-09d01t06.flac:377c5bcc15e60e17a317beb97600d192
govtmule2016-12-09d01t07.flac:64959abc893a427d77015d0e68862a55
govtmule2016-12-09d01t08.flac:16a19f01dc9d1e7e244dedf19536358d
govtmule2016-12-09d01t09.flac:d2d50f9fb6904b7ad9638519772fc043
govtmule2016-12-09d01t10.flac:1430c9cdad30229e377c67c84a966571
govtmule2016-12-09d01t11.flac:1708180e4d57b72cb10b95358b33f548
govtmule2016-12-09d01t12.flac:3b5d6a777d844c74a50789ca4986dd52

  length     expanded size    cdr  WAVE problems  fmt   ratio  filename
     1:11.53       12649100 B   ---   --   ---xx   flac  0.3777  govtmule2016-12-09d01t01.flac
     1:39.35       17545964 B   ---   --   ---xx   flac  0.3634  govtmule2016-12-09d01t02.flac
     7:53.72       83606588 B   ---   --   ---xx   flac  0.4729  govtmule2016-12-09d01t03.flac
     7:00.49       74203292 B   ---   --   ---xx   flac  0.5100  govtmule2016-12-09d01t04.flac
     9:28.31      100268156 B   ---   --   ---xx   flac  0.5220  govtmule2016-12-09d01t05.flac
    10:50.56      114791756 B   ---   --   ---xx   flac  0.4651  govtmule2016-12-09d01t06.flac
     8:26.29       89326652 B   ---   --   ---xx   flac  0.4833  govtmule2016-12-09d01t07.flac
     8:19.47       88134188 B   ---   --   ---xx   flac  0.4835  govtmule2016-12-09d01t08.flac
     8:50.29       93560252 B   ---   --   ---xx   flac  0.4709  govtmule2016-12-09d01t09.flac
     1:14.21       13103036 B   ---   --   ---xx   flac  0.4123  govtmule2016-12-09d01t10.flac
     8:17.49       87786092 B   ---   --   ---xx   flac  0.5421  govtmule2016-12-09d01t11.flac
     1:07.70       11983484 B   ---   --   ---xx   flac  0.4209  govtmule2016-12-09d01t12.flac
    74:21.16      786958560 B                            0.4856  (12 files)

















More information about the bittorrent mailing list