[bittorrent] Marcus King Band Warren Haynes Christmas Pre-Jam Orange Peel Asheville, North Carolina 12/9/2016 (Schoeps 4V'S FOB)

Automated Mailer noreply-bt.e at etree.org
Wed Dec 14 03:16:36 UTC 2016


Band:           Other
Torrent Name:   Marcus King Band Warren Haynes Christmas Pre-Jam Orange Peel Asheville, North Carolina 12/9/2016 (Schoeps 4V'S FOB)
Uploaded by:    zmanatl
DB Link:        
Details:        http://bt.etree.org/details.php?id=590325

Contact the seeder at http://db.etree.org/zmanatl

If the link to this show does not work, it was probably removed for
being non-trade-friendly.

Description / text file:
-------------------------
Marcus King Band
Warren Haynes Christmas Pre-Jam 
Orange Peel
Asheville, North Carolina
12/9/2016 

Source: Schoeps 4V's>Sound Devices 722 (24/44)
35' From Stage, 5 1/2' High
DSP: Sound Devices 722>Sound Forge 10.0>CD Wave>flac(16)
ID3 Tagged In Foobar 2000
Recorded By: Manofz
Seeded By: Manofz

Disc I 

01 Introduction By Martin Anderson 
02 Ain't Nothing Wrong With That
03 Keep Moving
04 Side Door Open
05 Plant Your Corn Early >
06 Drum Solo >
07 Plant Your Corn Early
08 *Virginia >
09 *The Mystery Of Mr. Eads

* With Warren Haynes On Guitar

marcus2016-12-09d01t01.flac:7aef5d7ce9b0f9a0e864bbde817d3d52
marcus2016-12-09d01t02.flac:c6417fe8421928c8478f962cd1bdafbd
marcus2016-12-09d01t03.flac:6a7fcd99fa61a412b61574bb2dcc57d8
marcus2016-12-09d01t04.flac:61213a15cf6848f51dbdf0f80516384e
marcus2016-12-09d01t05.flac:921791265f571b0d45d2f97f97ff4509
marcus2016-12-09d01t06.flac:b4da9ba1e4667f69b475b43edb99229e
marcus2016-12-09d01t07.flac:4537687e10ab549ded03241105ee2e6e
marcus2016-12-09d01t08.flac:da5e6b3b66e88b19343644384b37924a
marcus2016-12-09d01t09.flac:f2bf92fcce8c2e1d170d533a03c5b978

 length     expanded size    cdr  WAVE problems  fmt   ratio  filename
     1:18.67       13916828 B   ---   --   ---xx   flac  0.3540  marcus2016-12-09d01t01.flac
     6:35.35       69760364 B   ---   --   ---xx   flac  0.4650  marcus2016-12-09d01t02.flac
     8:54.07       94214108 B   ---   --   ---xx   flac  0.4857  marcus2016-12-09d01t03.flac
     6:08.53       65039900 B   ---   --   ---xx   flac  0.4553  marcus2016-12-09d01t04.flac
     2:50.47       30098588 B   ---   --   ---xx   flac  0.5015  marcus2016-12-09d01t05.flac
     2:24.21       25451036 B   ---   --   ---xx   flac  0.4622  marcus2016-12-09d01t06.flac
     2:31.09       26657612 B   ---   --   ---xx   flac  0.4611  marcus2016-12-09d01t07.flac
     7:43.70       81837884 B   ---   --   ---xx   flac  0.4808  marcus2016-12-09d01t08.flac
     4:07.24       43627292 B   ---   --   ---xx   flac  0.4760  marcus2016-12-09d01t09.flac
    42:34.33      450603612 B                            0.4705  (9 files)






More information about the bittorrent mailing list