[bittorrent] Tom Hamilton American Babies Warren Haynes Christmas Pre-Jam Orange Peel Asheville, North Carolina 12/9/2016 (Schoeps 4V'S FOB)

Automated Mailer noreply-bt.e at etree.org
Wed Dec 14 02:27:55 UTC 2016


Band:           Other
Torrent Name:   Tom Hamilton American Babies Warren Haynes Christmas Pre-Jam Orange Peel Asheville, North Carolina 12/9/2016 (Schoeps 4V'S FOB)
Uploaded by:    zmanatl
DB Link:        
Details:        http://bt.etree.org/details.php?id=590323

Contact the seeder at http://db.etree.org/zmanatl

If the link to this show does not work, it was probably removed for
being non-trade-friendly.

Description / text file:
-------------------------
Tom Hamilton American Babies
Warren Haynes Christmas Pre-Jam 
Orange Peel
Asheville, North Carolina
12/9/2016 

Source: Schoeps 4V's>Sound Devices 722 (24/44)
35' From Stage, 5 1/2' High
DSP: Sound Devices 722>Sound Forge 10.0>CD Wave>flac(16)
ID3 Tagged In Foobar 2000
Recorded By: Manofz
Seeded By: Manofz

Disc I 

01 *Old Time Religion >
02 *Bullseye Blues 
03 *Bring It In Close >
04 *Fever Dreams

* With Holly Bowling On Keyboards

tom2016-12-09d01t01.flac:38356dc51ed757800a1bffb88c0fe824
tom2016-12-09d01t02.flac:6b2b864d969ebe8d607e1aee10bfb99d
tom2016-12-09d01t03.flac:cdbe09cf8c445c7ea54d171ee0316d46
tom2016-12-09d01t04.flac:03c5c54bb68d5b712f188e933433a279

length     expanded size    cdr  WAVE problems  fmt   ratio  filename
     9:39.09      102156812 B   ---   --   ---xx   flac  0.4809  tom2016-12-09d01t01.flac
     7:53.05       83449004 B   ---   --   ---xx   flac  0.4093  tom2016-12-09d01t02.flac
     7:52.61       83404316 B   ---   --   ---xx   flac  0.4514  tom2016-12-09d01t03.flac
     4:33.50       48274844 B   ---   --   ---xx   flac  0.4982  tom2016-12-09d01t04.flac
    29:58.50      317284976 B                            0.4569  (4 files)














More information about the bittorrent mailing list