[bittorrent] Warren Haynes Christmas Pre-Jam Orange Peel Asheville, North Carolina 12/9/2016 (Schoeps 4V'S FOB)

Automated Mailer noreply-bt.e at etree.org
Wed Dec 14 01:52:20 UTC 2016


Band:           Other
Torrent Name:    Warren Haynes Christmas Pre-Jam Orange Peel Asheville, North Carolina 12/9/2016 (Schoeps 4V'S FOB)
Uploaded by:    zmanatl
DB Link:        
Details:        http://bt.etree.org/details.php?id=590320

Contact the seeder at http://db.etree.org/zmanatl

If the link to this show does not work, it was probably removed for
being non-trade-friendly.

Description / text file:
-------------------------
Jamey Johnson And Alison Krauss
Warren Haynes Christmas Pre-Jam 
Orange Peel
Asheville, North Carolina
12/9/2016 

Source: Schoeps 4V's>Sound Devices 722 (24/44)
35' From Stage, 5 1/2' High
DSP: Sound Devices 722>Sound Forge 10.0>CD Wave>flac(16)
ID3 Tagged In Foobar 2000
Recorded By: Manofz
Seeded By: Manofz

Disc I 

01 Introduction By Martin Anderson
02 Make The World Go Away
03 Dreamin' My Dreams With You
04 My Dixie Darlin'
05 Lay Down Beside Me
06 Seven Spanish Angels
07 When You Say Nothing At All
08 In Color
09 Martin Anderson Banter

jamey2016-12-09d01t01.flac:b727742fcf6ada0da1651bce81131daa
jamey2016-12-09d01t02.flac:c391e221fb2fcff52ed23a85c8aafe68
jamey2016-12-09d01t03.flac:7077ee5c00c164d18d1cac2496fc3d22
jamey2016-12-09d01t04.flac:8aeb4b7ae0a4480a150cf6b5a698fcbc
jamey2016-12-09d01t05.flac:39b3a34637699faac63c1ee62f6269e5
jamey2016-12-09d01t06.flac:e28f08affb0ea71bdd70b48fbbc846d2
jamey2016-12-09d01t07.flac:93cdd488923d172f5e0b150ff6d691e1
jamey2016-12-09d01t08.flac:09519e1554343836ae49fed91f4e5e87
jamey2016-12-09d01t09.flac:960909482cf8d435cd9953817762c291

length     expanded size    cdr  WAVE problems  fmt   ratio  filename
     0:37.70        6691484 B   ---   --   ---xx   flac  0.4135  jamey2016-12-09d01t01.flac
     3:45.07       39706508 B   ---   --   ---xx   flac  0.3428  jamey2016-12-09d01t02.flac
     3:11.30       33763004 B   ---   --   ---xx   flac  0.3203  jamey2016-12-09d01t03.flac
     4:13.60       44770364 B   ---   --   ---xx   flac  0.3692  jamey2016-12-09d01t04.flac
     3:02.21       32154236 B   ---   --   ---xx   flac  0.3437  jamey2016-12-09d01t05.flac
     4:11.15       44311724 B   ---   --   ---xx   flac  0.3390  jamey2016-12-09d01t06.flac
     4:51.54       51459452 B   ---   --   ---xx   flac  0.3213  jamey2016-12-09d01t07.flac
     4:33.12       48185468 B   ---   --   ---xx   flac  0.3360  jamey2016-12-09d01t08.flac
     1:49.34       19307612 B   ---   --   ---xx   flac  0.4251  jamey2016-12-09d01t09.flac
    30:16.03      320349852 B                            0.3456  (9 files)





More information about the bittorrent mailing list