[bittorrent] George Porter Jr. And Friends Warren Haynes Christmas Pre-Jam Orange Peel Asheville, North Carolina 12/9/2016 (Schoeps 4V'S FOB)

Automated Mailer noreply-bt.e at etree.org
Wed Dec 14 01:24:04 UTC 2016


Band:           George Porter, Jr. & Runnin' P
Torrent Name:   George Porter Jr. And Friends Warren Haynes Christmas Pre-Jam Orange Peel Asheville, North Carolina 12/9/2016 (Schoeps 4V'S FOB)
Uploaded by:    zmanatl
DB Link:        
Details:        http://bt.etree.org/details.php?id=590318

Contact the seeder at http://db.etree.org/zmanatl

If the link to this show does not work, it was probably removed for
being non-trade-friendly.

Description / text file:
-------------------------
George Porter Jr. And Friends
Warren Haynes Christmas Pre-Jam 
Orange Peel
Asheville, North Carolina
12/9/2016 

Source: Schoeps 4V's>Sound Devices 722 (24/44)
35' From Stage, 5 1/2' High
DSP: Sound Devices 722>Sound Forge 10.0>CD Wave>flac(16)
ID3 Tagged In Foobar 2000
Recorded By: Manofz
Seeded By: Manofz

Disc I 

01 Introduction By Joe Kendrick
02 Take A Chance >
03 Leave Me Alone
04 Come Together
05 *Jam >
06 *Ain't No Use >
07 Martin Anderson Banter On Habitat For Humanity

* With Warren Haynes On Guitar

George Porter Jr. On Bass And Vocals 
Eric Krasno On Guitar
Danny Louis On Keyboards 
Terrence Higgins On Drums

george2016-12-09d01t01.flac:4e9164658c9e15cca7ba9d4d263a4d3f
george2016-12-09d01t02.flac:ab0fbe02cb36dc460e478bd102a113d1
george2016-12-09d01t03.flac:0efcedc446c57c079500433f6c3d00bf
george2016-12-09d01t04.flac:661b2b7d93f1d75535371ece21b9b2bc
george2016-12-09d01t05.flac:246bf5dfd4d233e3930a679c18158cc1
george2016-12-09d01t06.flac:9ca5e0fa0c0e384edd3f7eb89c89d4b3
george2016-12-09d01t07.flac:6f6acfa707214a231d05f5bd053d66db

 length     expanded size    cdr  WAVE problems  fmt   ratio  filename
     0:44.27        7825148 B   ---   --   ---xx   flac  0.3810  george2016-12-09d01t01.flac
     7:19.28       77505500 B   ---   --   ---xx   flac  0.5328  george2016-12-09d01t02.flac
     6:05.13       64416620 B   ---   --   ---xx   flac  0.5208  george2016-12-09d01t03.flac
     7:21.42       77891228 B   ---   --   ---xx   flac  0.5297  george2016-12-09d01t04.flac
     2:30.38       26549420 B   ---   --   ---xx   flac  0.4637  george2016-12-09d01t05.flac
    10:04.17      106585628 B   ---   --   ---xx   flac  0.5316  george2016-12-09d01t06.flac
     9:17.64       98405372 B   ---   --   ---xx   flac  0.4009  george2016-12-09d01t07.flac
    43:23.04      459178916 B                            0.4955  (7 files)








More information about the bittorrent mailing list