[bittorrent] Warren Haynes Solo Acoustic Warren Haynes Christmas Pre-Jam Orange Peel Asheville, North Carolina 12/9/2016 (Schoeps 4V'S FOB)

Automated Mailer noreply-bt.e at etree.org
Wed Dec 14 00:09:42 UTC 2016


Band:           Warren Haynes
Torrent Name:   Warren Haynes Solo Acoustic Warren Haynes Christmas Pre-Jam Orange Peel Asheville, North Carolina 12/9/2016 (Schoeps 4V'S FOB)
Uploaded by:    zmanatl
DB Link:        
Details:        http://bt.etree.org/details.php?id=590317

Contact the seeder at http://db.etree.org/zmanatl

If the link to this show does not work, it was probably removed for
being non-trade-friendly.

Description / text file:
-------------------------
Warren Haynes Solo Acoustic
Warren Haynes Christmas Pre-Jam 
Orange Peel
Asheville, North Carolina
12/9/2016 

Source: Schoeps 4V's>Sound Devices 722 (24/44)
35' From Stage, 5 1/2' High
DSP: Sound Devices 722>Sound Forge 10.0>CD Wave>flac(16)
ID3 Tagged In Foobar 2000
Recorded By: Manofz
Seeded By: Manofz

Disc I 

01 Martin Anderson
02 Announcement On Tonight's Line-Up By Dennis
03 Martin Anderson
04 Warren Banter
05 Is It Me Or You
06 Beat Down The Dust
07 Martin And Warren Interview

warren2016-12-09d01t01.flac:0c6951e1a9a8625b787355287f1591c3
warren2016-12-09d01t02.flac:46f6e946cc126142d28b3da81b838956
warren2016-12-09d01t03.flac:b9e253ead426afa8393acff83f27bdb7
warren2016-12-09d01t04.flac:b0e3bfe1927bc68f3d102c14d577e746
warren2016-12-09d01t05.flac:40cdc5df32c2e16126b517a98f055be2
warren2016-12-09d01t06.flac:120c9eaff00dfdbbe1488e86f5a75ae7
warren2016-12-09d01t07.flac:d4ab62b2e4ae64a9b30e6191eba4d30f

length     expanded size    cdr  WAVE problems  fmt   ratio  filename
     0:46.55        8243804 B   ---   --   ---xx   flac  0.3912  warren2016-12-09d01t01.flac
     0:41.20        7279484 B   ---   --   ---xx   flac  0.4395  warren2016-12-09d01t02.flac
     1:21.02       14293148 B   ---   --   ---xx   flac  0.4170  warren2016-12-09d01t03.flac
     1:06.57       11776508 B   ---   --   ---xx   flac  0.3411  warren2016-12-09d01t04.flac
     4:33.02       48161948 B   ---   --   ---xx   flac  0.3929  warren2016-12-09d01t05.flac
     4:17.48       45447740 B   ---   --   ---xx   flac  0.4040  warren2016-12-09d01t06.flac
    10:05.13      106752620 B   ---   --   ---xx   flac  0.3626  warren2016-12-09d01t07.flac
    22:51.47      241955252 B                            0.3819  (7 files)




More information about the bittorrent mailing list