[bittorrent] gd1983-04-16.137372.set2.m160.miller.flac24

Automated Mailer noreply-bt.e at etree.org
Tue Dec 13 23:46:51 UTC 2016


Band:           Grateful Dead
Torrent Name:   gd1983-04-16.137372.set2.m160.miller.flac24
Uploaded by:    greendude
DB Link:        
Details:        http://bt.etree.org/details.php?id=590315

Contact the seeder at http://db.etree.org/greendude

If the link to this show does not work, it was probably removed for
being non-trade-friendly.

Description / text file:
-------------------------
Grateful Dead - April 16, 1983
Brendan Byrne Arena - East Rutherford, NJ

Recording Info:
(FOB) Beyer M160 > Sony TC-D5M > Cassette Master (Sony WM-D6 Patched)

Transfer Info:
Cassette Master (Nakamichi DR-1) > Tascam DA-3000 (DSF 1-bit/5.8 MHz) >
KORG AudioGate 4 > Adobe Audition CC 2015 > Samplitude Pro X3 Suite > FLAC/24
(1 Disc FLAC)

Recorded By Charlie Miller
charliemiller87 at earthlink.net
December 12, 2016

Patch Info:
Nakamichi 300/CP4 > Cassette Master (Sony TC-D5M) supplies:
Black Peter (complete track)
One More Saturday Night (complete track)

Sennheiser 421 > Cassette Master (shnid=125924) supplies:
One More Saturday Night (1:48 - 2:04)

Notes:
-- This is a far superior transfer than my previous attempt (shnid=23851)
-- Stephen Stills on Black Queen, Iko Iko, Black Peter and One More Saturday Night
-- Recorded 2 rows in front of sbd about 10 feet to the left
-- My batteries died during Black Peter so I patched the last 2 songs after the show
-- I lost my first set tape which also had the encore
-- Thanks to Joe B. Jones for his help with the pitch correction

Set 2:
01 - Tuning
02 - China Cat Sunflower >
03 - I Know You Rider
04 - Uncle John's Band >
05 - Truckin' >
06 - Drums >
07 - Space >
08 - Black Queen >
09 - Iko Iko >
10 - Little Star >
11 - The Other One >
12 - Black Peter >
13 - One More Saturday Night


SHNTOOL OUTPUT:
    length     expanded size    cdr  WAVE problems  fmt   ratio  filename
     1:10.204      40437794 B   cxx   --   ---xx   flac  0.6690  01 Tuning.flac
     6:12.878     214778030 B   cxx   --   ---xx   flac  0.7014  02 China Cat Sunflower.flac
     7:04.259     244373084 B   cxx   --   ---xx   flac  0.6988  03 I Know You Rider.flac
    10:20.441     357374006 B   cxx   --   ---xx   flac  0.7001  04 Uncle John's Band.flac
    12:12.264     421784360 B   cxx   --   ---xx   flac  0.7003  05 Truckin'.flac
     6:57.578     240525080 B   cxx   --   ---xx   flac  0.6710  06 Drums.flac
     0:46.517      26793812 B   cxx   --   ---xx   flac  0.6611  07 Space.flac
     7:11.797     248715260 B   cxx   --   ---xx   flac  0.7004  08 Black Queen.flac
     7:30.099     259256876 B   cxx   --   ---xx   flac  0.7022  09 Iko Iko.flac
     1:33.026      53582816 B   cxx   --   ---xx   flac  0.6891  10 Little Star.flac
     6:30.828     225117224 B   cxx   --   ---xx   flac  0.6988  11 The Other One.flac
     8:18.831     287326784 B   cxx   --   ---xx   flac  0.7011  12 Black Peter.flac
     4:30.328     155709014 B   cxx   --   ---xx   flac  0.7183  13 One More Saturday Night.flac
    80:19.051    2775774140 B                            0.6978  (13 files)




More information about the bittorrent mailing list