[bittorrent] Bob Weir And Friends Warren Haynes Christmas Pre-Jam Orange Peel Asheville, North Carolina 12/9/2016 (Schoeps 4V'S FOB)

Automated Mailer noreply-bt.e at etree.org
Tue Dec 13 17:28:34 UTC 2016


Band:           Other
Torrent Name:   Bob Weir And Friends Warren Haynes Christmas Pre-Jam Orange Peel Asheville, North Carolina 12/9/2016 (Schoeps 4V'S FOB)
Uploaded by:    zmanatl
DB Link:        
Details:        http://bt.etree.org/details.php?id=590307

Contact the seeder at http://db.etree.org/zmanatl

If the link to this show does not work, it was probably removed for
being non-trade-friendly.

Description / text file:
-------------------------
Bob Weir And Friends
Warren Haynes Christmas Pre-Jam 
Orange Peel
Asheville, North Carolina
12/9/2016 

Source: Schoeps 4V's>Sound Devices 722 (24/44)
35' From Stage, 5 1/2' High
DSP: Sound Devices 722>Sound Forge 10.0>CD Wave>flac(16)
ID3 Tagged In Foobar 2000
Recorded By: Manofz
Seeded By: Manofz

Disc I 

01 *When I Paint My Masterpiece
02 *Only A River
03 *Loose Lucy
04 #@^%A Hard Rains A Gonna Fall
05 #@^%Ghost Towns
06 #@^%Friend Of The Devil
07 #@^%Tennessee Jed
08 #@^%+Touch Of Grey
09 Outro By Martin Anderson

* Bob Weir Solo Acoustic
# With Tom Hamilton On Guitar And Vocals
@ With Don Was On Bass
^ With Duane Trucks On Drums
% With Holly Bowling On Keyboards
+ With Warren Haynes On Guitar And Vocals

bobweir2016-12-09d01t01.flac:10d53fab444598546945057cd1211755
bobweir2016-12-09d01t02.flac:e6b99692a38ac745abdb363475c12285
bobweir2016-12-09d01t03.flac:38f13bf8bf5c422de275dccd1321fd07
bobweir2016-12-09d01t04.flac:b7e533c2282eee9ad891fe2ee6c55a0c
bobweir2016-12-09d01t05.flac:026dc9688810211259c53a27a330cc21
bobweir2016-12-09d01t06.flac:b58cfd591bc011bbf455ea63732a6003
bobweir2016-12-09d01t07.flac:69fc43c3f9bc2fa6722f37279250780e
bobweir2016-12-09d01t08.flac:5d1a6c9878beef3fa87c400f85b23fe6
bobweir2016-12-09d01t09.flac:6f40f3760cf015599fd72db1dd3b2ec0

 length     expanded size    cdr  WAVE problems  fmt   ratio  filename
     6:18.01       66681596 B   ---   --   ---xx   flac  0.3927  bobweir2016-12-09d01t01.flac
     6:28.60       68584364 B   ---   --   ---xx   flac  0.3529  bobweir2016-12-09d01t02.flac
     8:03.06       85215356 B   ---   --   ---xx   flac  0.4038  bobweir2016-12-09d01t03.flac
    10:33.06      111675356 B   ---   --   ---xx   flac  0.4456  bobweir2016-12-09d01t04.flac
     6:08.49       65030492 B   ---   --   ---xx   flac  0.4244  bobweir2016-12-09d01t05.flac
     6:03.50       64150844 B   ---   --   ---xx   flac  0.4657  bobweir2016-12-09d01t06.flac
     7:53.10       83460764 B   ---   --   ---xx   flac  0.5041  bobweir2016-12-09d01t07.flac
     7:27.43       78951980 B   ---   --   ---xx   flac  0.5134  bobweir2016-12-09d01t08.flac
     1:23.19       14685932 B   ---   --   ---xx   flac  0.4235  bobweir2016-12-09d01t09.flac
    60:19.19      638436684 B                            0.4399  (9 files)

















More information about the bittorrent mailing list