[bittorrent] Wild Adriatic Aisle 5 Atlanta, Georgia 12/8/2016 (Schoeps CCM4V'S FOB)

Automated Mailer noreply-bt.e at etree.org
Tue Dec 13 15:27:47 UTC 2016


Band:           Other
Torrent Name:   Wild Adriatic Aisle 5 Atlanta, Georgia 12/8/2016 (Schoeps CCM4V'S FOB)
Uploaded by:    zmanatl
DB Link:        
Details:        http://bt.etree.org/details.php?id=590303

Contact the seeder at http://db.etree.org/zmanatl

If the link to this show does not work, it was probably removed for
being non-trade-friendly.

Description / text file:
-------------------------
Wild Adriatic
Aisle 5
Atlanta, Georgia
12/8/2016 

Source: Schoeps CCM4V's>Lunatec V2>Benchmark AD2K>
Sound Devices 722 (24/44)
FOB/DFC/KFC/ZFC/AARP 27' From Stage, 7 1/2' High
DSP: Sound Devices 722>Sound Forge 10.0>CD Wave>flac(16)
ID3 Tagged In Foobar 2000
Recorded By: Z-Man
Seeded By: Z-Man

Disc I 

01 ?
02 ?
03 ?
04 ?
05 ?
06 ?
07 Strange Persuasions
08 *Ocean
09 *Been A Long Time Since I Rock And Rolled 
10 ?

* With Justin Mazer Of American Babies On Guitar

wild2016-12-08d01t01.flac:18b8c5bda3ae33a1b8276b88979f3021
wild2016-12-08d01t02.flac:e102fdce1ed6dbcd67f040278d37b533
wild2016-12-08d01t03.flac:d3081b4bf4a825d8ba46e77221ad9f45
wild2016-12-08d01t04.flac:fcf564e53c1bb462928c65f9b964d4aa
wild2016-12-08d01t05.flac:53483c9f11553320de0aa8269e52abb9
wild2016-12-08d01t06.flac:c35239f202ba0e6a1c9089c5bcd62cdf
wild2016-12-08d01t07.flac:a8f54b11a67dc1ae39a173d16e786922
wild2016-12-08d01t08.flac:f08bb01357368474ef2ad0c244699ac5
wild2016-12-08d01t09.flac:88d4e848f760f9047ba22e6dc41d431b
wild2016-12-08d01t10.flac:16944e19d8d8950ba8cae67a57b0befa

 length     expanded size    cdr  WAVE problems  fmt   ratio  filename
     4:54.42       51960428 B   ---   --   ---xx   flac  0.5376  wild2016-12-08d01t01.flac
     8:10.33       86513660 B   ---   --   ---xx   flac  0.5431  wild2016-12-08d01t02.flac
     5:47.12       61239068 B   ---   --   ---xx   flac  0.5191  wild2016-12-08d01t03.flac
     3:46.00       39866444 B   ---   --   ---xx   flac  0.5315  wild2016-12-08d01t04.flac
     6:49.49       72262892 B   ---   --   ---xx   flac  0.5238  wild2016-12-08d01t05.flac
     7:14.12       76585868 B   ---   --   ---xx   flac  0.5428  wild2016-12-08d01t06.flac
     5:45.16       60895676 B   ---   --   ---xx   flac  0.4696  wild2016-12-08d01t07.flac
     4:47.25       50685644 B   ---   --   ---xx   flac  0.5354  wild2016-12-08d01t08.flac
     4:34.35       48415964 B   ---   --   ---xx   flac  0.5325  wild2016-12-08d01t09.flac
     7:05.73       75141740 B   ---   --   ---xx   flac  0.5309  wild2016-12-08d01t10.flac
    58:54.72      623567384 B                            0.5272  (10 files)








More information about the bittorrent mailing list