[bittorrent] Trouble Aaron Wood Warren Haynes Christmas Jam By Day Asheville Music Hall Asheville, North Carolina 12/10/2016 (Schoeps CCM4V'S FOB)

Automated Mailer noreply-bt.e at etree.org
Tue Dec 13 07:46:35 UTC 2016


Band:           Other
Torrent Name:   Trouble Aaron Wood Warren Haynes Christmas Jam By Day Asheville Music Hall Asheville, North Carolina 12/10/2016 (Schoeps CCM4V'S FOB)
Uploaded by:    zmanatl
DB Link:        
Details:        http://bt.etree.org/details.php?id=590295

Contact the seeder at http://db.etree.org/zmanatl

If the link to this show does not work, it was probably removed for
being non-trade-friendly.

Description / text file:
-------------------------
Trouble Aaron Woods And Friends
Warren Haynes Christmas Jam By Day
Asheville Music Hall
Asheville, North Carolina
12/10/2016 

Source: Schoeps CCM4V's>Lunatec V2>Benchmark AD2K>
Sound Devices 722 (24/44)
FOB/DFC/KFC/ZFC/AARP 17' From Stage, 7 1/2' High
DSP: Sound Devices 722>Sound Forge 10.0>CD Wave>flac(16)
ID3 Tagged In Foobar 2000
Recorded By: Z-Man
Seeded By: Z-Man

Disc I 

01 From Now On
02 *?
03 *No Expectations
04 *#?
05 *#I'm Goin' Down
06 @?
07 @?
08 @?

* With Bobby Miller On Mandolin
# With Marcus King On Guitar
@ With Mike ? On Drums

trouble2016-12-10d01t01.flac:f92ffa42fb5618530bebdc6b3e8b4157
trouble2016-12-10d01t02.flac:31789d8bf3872d7852b8a9182e151931
trouble2016-12-10d01t03.flac:15eb5b5cf43f83ece6cb517acc0fe5e5
trouble2016-12-10d01t04.flac:a34db49fe29b9a3b729825fe15b557fa
trouble2016-12-10d01t05.flac:c8863627a906c04d7b0bb39385ed1771
trouble2016-12-10d01t06.flac:81fc10eb2684b33c7f9f5bfd480a7801
trouble2016-12-10d01t07.flac:64741b350414f7d2d8853f8c05183cfe
trouble2016-12-10d01t08.flac:ef4821e09386c7301198e8e1cedb7c20

 length     expanded size    cdr  WAVE problems  fmt   ratio  filename
     8:30.48       90076940 B   ---   --   ---xx   flac  0.5638  trouble2016-12-10d01t01.flac
     8:46.11       92812316 B   ---   --   ---xx   flac  0.5587  trouble2016-12-10d01t02.flac
     7:47.60       82519964 B   ---   --   ---xx   flac  0.4779  trouble2016-12-10d01t03.flac
     7:50.00       82908044 B   ---   --   ---xx   flac  0.5175  trouble2016-12-10d01t04.flac
     9:09.44       96947132 B   ---   --   ---xx   flac  0.5422  trouble2016-12-10d01t05.flac
     6:50.69       72486332 B   ---   --   ---xx   flac  0.4937  trouble2016-12-10d01t06.flac
     3:50.63       40720220 B   ---   --   ---xx   flac  0.4747  trouble2016-12-10d01t07.flac
     7:37.30       80685404 B   ---   --   ---xx   flac  0.5340  trouble2016-12-10d01t08.flac
    60:23.25      639156352 B                            0.5253  (8 files)











More information about the bittorrent mailing list