[bittorrent] Mike Barnes Band Warren Haynes Christmas Jam By Day Asheville Music Hall Asheville, North Carolina 12/10/2016 (Schoeps CCM4V'S FOB)

Automated Mailer noreply-bt.e at etree.org
Tue Dec 13 07:13:05 UTC 2016


Band:           Other
Torrent Name:   Mike Barnes Band Warren Haynes Christmas Jam By Day Asheville Music Hall Asheville, North Carolina 12/10/2016 (Schoeps CCM4V'S FOB)
Uploaded by:    zmanatl
DB Link:        
Details:        http://bt.etree.org/details.php?id=590293

Contact the seeder at http://db.etree.org/zmanatl

If the link to this show does not work, it was probably removed for
being non-trade-friendly.

Description / text file:
-------------------------
Mike Barnes And Friends
Warren Haynes Christmas Jam By Day
Asheville Music Hall
Asheville, North Carolina
12/10/2016 

Source: Schoeps CCM4V's>Lunatec V2>Benchmark AD2K>
Sound Devices 722 (24/44)
FOB/DFC/KFC/ZFC/AARP 17' From Stage, 7 1/2' High
DSP: Sound Devices 722>Sound Forge 10.0>CD Wave>flac(16)
ID3 Tagged In Foobar 2000
Recorded By: Z-Man
Seeded By: Z-Man

Disc I 

01 Introduction
02 Evil Ways
03 Fire
04 *Breathe
05 #Instrumental
06 #Never Enough
07 #@Ocean
08 #@?
09 #@I Just Want To Show You

mikebarnes2016-12-10d01t01.flac:cd3306389c004787dfa6a20013568a03
mikebarnes2016-12-10d01t02.flac:7a240b93799fc1c8623d9617ad678c11
mikebarnes2016-12-10d01t03.flac:b01ed78f9b9c6946df6933c6c7ee9908
mikebarnes2016-12-10d01t04.flac:d3cbd45c76db74c0f2101619a5eaf079
mikebarnes2016-12-10d01t05.flac:68214fed4608734a377db87e22228e01
mikebarnes2016-12-10d01t06.flac:ce4f7a041f6673813cb6e73dc4dfe16f
mikebarnes2016-12-10d01t07.flac:a441167e5b5f94e71c594fc8ab64b116
mikebarnes2016-12-10d01t08.flac:353ba1cc6e3dddae842c367167d70c4b
mikebarnes2016-12-10d01t09.flac:de90ff9c61bb8d0d76160a436b4ad7f0

length     expanded size    cdr  WAVE problems  fmt   ratio  filename
     0:16.49        2937692 B   ---   --   ---xx   flac  0.3551  mikebarnes2016-12-10d01t01.flac
     5:20.00       56448044 B   ---   --   ---xx   flac  0.5322  mikebarnes2016-12-10d01t02.flac
     4:04.02       43046348 B   ---   --   ---xx   flac  0.5658  mikebarnes2016-12-10d01t03.flac
     8:09.05       86271404 B   ---   --   ---xx   flac  0.4021  mikebarnes2016-12-10d01t04.flac
     8:57.22       94778588 B   ---   --   ---xx   flac  0.4656  mikebarnes2016-12-10d01t05.flac
     4:06.55       43523804 B   ---   --   ---xx   flac  0.5047  mikebarnes2016-12-10d01t06.flac
     4:52.28       51574700 B   ---   --   ---xx   flac  0.5377  mikebarnes2016-12-10d01t07.flac
     3:51.47       40858988 B   ---   --   ---xx   flac  0.5273  mikebarnes2016-12-10d01t08.flac
     4:43.35       50003564 B   ---   --   ---xx   flac  0.5633  mikebarnes2016-12-10d01t09.flac
    44:21.18      469443132 B                            0.4978  (9 files)



















More information about the bittorrent mailing list