[bittorrent] Fireside Collective Warren Haynes Christmas Jam By Day Asheville Music Hall Asheville, North Carolina 12/10/2016 (Schoeps CCM4V'S FOB)

Automated Mailer noreply-bt.e at etree.org
Tue Dec 13 06:48:59 UTC 2016


Band:           Other
Torrent Name:   Fireside Collective Warren Haynes Christmas Jam By Day Asheville Music Hall Asheville, North Carolina 12/10/2016 (Schoeps CCM4V'S FOB)
Uploaded by:    zmanatl
DB Link:        
Details:        http://bt.etree.org/details.php?id=590292

Contact the seeder at http://db.etree.org/zmanatl

If the link to this show does not work, it was probably removed for
being non-trade-friendly.

Description / text file:
-------------------------
Fireside Collective
Warren Haynes Christmas Jam By Day
Asheville Music Hall
Asheville, North Carolina
12/10/2016 

Source: Schoeps CCM4V's>Lunatec V2>Benchmark AD2K>
Sound Devices 722 (24/44)
FOB/DFC/KFC/ZFC/AARP 17' From Stage, 7 1/2' High
DSP: Sound Devices 722>Sound Forge 10.0>CD Wave>flac(16)
ID3 Tagged In Foobar 2000
Recorded By: Z-Man
Seeded By: Z-Man

Disc I 

01 Introduction
02 Poor Soul
03 ?
04 Love Please Come Home 
05 Little Liza Jane >
06 Rosalie McFall >
07 ?
08 You Can Call Me Al
09 Band Introductions
10 No Longer
11 Burnin' At Both Ends
12 Don't Do Me Like That

fireside2016-12-10d01t01.flac:3d0e8349c3892835c766579bf4fad93c
fireside2016-12-10d01t02.flac:b39b1af5288953a5d5c787e36cccb41a
fireside2016-12-10d01t03.flac:fb33d8e3757dbbae515161a7a68b07eb
fireside2016-12-10d01t04.flac:94f941cc3240593294395b4c62ec1641
fireside2016-12-10d01t05.flac:36f8f1605cea99c092237e37e83e766d
fireside2016-12-10d01t06.flac:e9fe6922a2187e7bace9b572a7c3698c
fireside2016-12-10d01t07.flac:32ee3d0607c346c9a3ae128f8d165caa
fireside2016-12-10d01t08.flac:220da71ea8fc8391578bc57b16f9a9c7
fireside2016-12-10d01t09.flac:61f9b3575e1d99d42d6b8467fa786527
fireside2016-12-10d01t10.flac:71be7635a517d849e333f9009388f050
fireside2016-12-10d01t11.flac:74c663667365cb4d3db36f50cd0ea828
fireside2016-12-10d01t12.flac:396421e8d23f11209a463eac0ea1047d

  length     expanded size    cdr  WAVE problems  fmt   ratio  filename
     0:20.61        3671516 B   ---   --   ---xx   flac  0.2449  fireside2016-12-10d01t01.flac
     3:47.17       40082828 B   ---   --   ---xx   flac  0.4656  fireside2016-12-10d01t02.flac
     4:08.43       43848380 B   ---   --   ---xx   flac  0.4533  fireside2016-12-10d01t03.flac
     3:24.34       36065612 B   ---   --   ---xx   flac  0.4584  fireside2016-12-10d01t04.flac
     2:58.58       31535660 B   ---   --   ---xx   flac  0.4401  fireside2016-12-10d01t05.flac
     3:32.30       37467404 B   ---   --   ---xx   flac  0.4464  fireside2016-12-10d01t06.flac
     4:56.52       52336748 B   ---   --   ---xx   flac  0.4344  fireside2016-12-10d01t07.flac
     5:15.39       55657772 B   ---   --   ---xx   flac  0.4575  fireside2016-12-10d01t08.flac
     1:59.22       21043388 B   ---   --   ---xx   flac  0.4082  fireside2016-12-10d01t09.flac
     3:47.45       40148684 B   ---   --   ---xx   flac  0.4590  fireside2016-12-10d01t10.flac
     5:49.32       61638908 B   ---   --   ---xx   flac  0.4710  fireside2016-12-10d01t11.flac
     4:52.49       51624092 B   ---   --   ---xx   flac  0.5186  fireside2016-12-10d01t12.flac
    44:53.32      475120992 B                            0.4580  (12 files)








More information about the bittorrent mailing list