[bittorrent] Tom Hamilton American Babies Warren Haynes Christmas Jam By Day Asheville Music Hall Asheville, North Carolina 12/10/2016 (Schoeps CCM4V'S FOB)

Automated Mailer noreply-bt.e at etree.org
Tue Dec 13 06:09:50 UTC 2016


Band:           Other
Torrent Name:   Tom Hamilton American Babies Warren Haynes Christmas Jam By Day Asheville Music Hall Asheville, North Carolina 12/10/2016 (Schoeps CCM4V'S FOB)
Uploaded by:    zmanatl
DB Link:        
Details:        http://bt.etree.org/details.php?id=590291

Contact the seeder at http://db.etree.org/zmanatl

If the link to this show does not work, it was probably removed for
being non-trade-friendly.

Description / text file:
-------------------------
Tom Hamilton American Babies
Warren Haynes Christmas Jam By Day
Asheville Music Hall
Asheville, North Carolina
12/10/2016 

Source: Schoeps CCM4V's>Lunatec V2>Benchmark AD2K>
Sound Devices 722 (24/44)
FOB/DFC/KFC/ZFC/AARP 17' From Stage, 7 1/2' High
DSP: Sound Devices 722>Sound Forge 10.0>CD Wave>flac(16)
ID3 Tagged In Foobar 2000
Recorded By: Z-Man
Seeded By: Z-Man

Disc I 

01 ? >
02 Walk On By 
03 Joeline >
04 ? >
05 Mississippi Half-Step Uptown Toodeloo >
06 Stell Blue/Eyes Of The World Jam >
07 Time For Chabge
08 Outro

tom2016-12-10d01t01.flac:68eca0daa51c8a325c3d039592eafdd0
tom2016-12-10d01t02.flac:2d7d73109c72c6d6c3db6200b5536617
tom2016-12-10d01t03.flac:08bd81d81616639e032acc395e607cb3
tom2016-12-10d01t04.flac:050d129d2fbe4d2492937d097bc68be6
tom2016-12-10d01t05.flac:9135fcd9edf353bffb451f235b3e9023
tom2016-12-10d01t06.flac:7a445b05dbb18656c1ad541bcd3164a3
tom2016-12-10d01t07.flac:6af1c0124b078ef853abf3317879a7b5
tom2016-12-10d01t08.flac:f720658370681c7d561d96b770cfa30d

length     expanded size    cdr  WAVE problems  fmt   ratio  filename
     9:14.14       97758572 B   ---   --   ---xx   flac  0.5401  tom2016-12-10d01t01.flac
     9:49.53      104024300 B   ---   --   ---xx   flac  0.5240  tom2016-12-10d01t02.flac
     4:20.34       45944012 B   ---   --   ---xx   flac  0.4910  tom2016-12-10d01t03.flac
     7:45.33       82103660 B   ---   --   ---xx   flac  0.4866  tom2016-12-10d01t04.flac
     8:36.50       91140044 B   ---   --   ---xx   flac  0.5023  tom2016-12-10d01t05.flac
     2:44.08       28948460 B   ---   --   ---xx   flac  0.4954  tom2016-12-10d01t06.flac
     1:00.69       10746332 B   ---   --   ---xx   flac  0.5581  tom2016-12-10d01t07.flac
     0:53.61        9492716 B   ---   --   ---xx   flac  0.4632  tom2016-12-10d01t08.flac
    44:25.22      470158096 B                            0.5112  (8 files)


















More information about the bittorrent mailing list