[bittorrent] Marcus King Band Warren Haynes Christmas Jam By Day Asheville Music Hall Asheville, North Carolina 12/10/2016 (Schoeps CCM4V'S FOB)

Automated Mailer noreply-bt.e at etree.org
Tue Dec 13 03:12:09 UTC 2016


Band:           Other
Torrent Name:   Marcus King Band Warren Haynes Christmas Jam By Day Asheville Music Hall Asheville, North Carolina 12/10/2016 (Schoeps CCM4V'S FOB)
Uploaded by:    zmanatl
DB Link:        
Details:        http://bt.etree.org/details.php?id=590288

Contact the seeder at http://db.etree.org/zmanatl

If the link to this show does not work, it was probably removed for
being non-trade-friendly.

Description / text file:
-------------------------
Marcus King Band
Warren Haynes Christmas Jam By Day
Asheville Music Hall
Asheville, North Carolina
12/10/2016 

Source: Schoeps CCM4V's>Lunatec V2>Benchmark AD2K>
Sound Devices 722 (24/44)
FOB/DFC/KFC/ZFC/AARP 17' From Stage, 7 1/2' High
DSP: Sound Devices 722>Sound Forge 10.0>CD Wave>flac(16)
ID3 Tagged In Foobar 2000
Recorded By: Z-Man
Seeded By: Z-Man

Disc I 

01 Introduction
02 Cheri Berry >
03 25 Or 6 To 4 >
04 Cheri Berry >
05 Have You Ever Loved A Woman
06 Self Hatred >
07 Always >
08 Drum Solo >
09 Always
10 Rita Is Gone >
11 Plant Your Corn Early 
12 The Last Song
13 The Man You Didn't Know >
14 Side Door Man
Encore:
15 Bring Em' Back  
16 You Can't Take It With You >
17 Drum Solo >
18 ?
19 Outro

marcus2016-12-10d01t01.flac:d6932cdbee0f94e521b0dbe538f0fa9e
marcus2016-12-10d01t02.flac:26b2e28790107ec153c8a6a18003b7c8
marcus2016-12-10d01t03.flac:7555ac0e4a9f503f4e6bbab95d182e0d
marcus2016-12-10d01t04.flac:7b2bae877c96c40232ddb50c1a2afd82
marcus2016-12-10d01t05.flac:6993c760091216995fc4e6382db49ae6
marcus2016-12-10d01t06.flac:ba30382878b5bf8f67f87a6c0246b964
marcus2016-12-10d01t07.flac:51168cd0554afc9a0a4800f1604dd3fe
marcus2016-12-10d01t08.flac:6332032e12f3989f7590497ad2ed73a3
marcus2016-12-10d01t09.flac:98356ba16b0e13f518a19c2b7242b86d
marcus2016-12-10d01t10.flac:0f8b5b6f76ed613a8cc88ee469532a7d
marcus2016-12-10d01t11.flac:e8893c39104d652992ada19f95241a33
marcus2016-12-10d01t12.flac:911db3f9493316991bd71ef585b85f3e
marcus2016-12-10d01t13.flac:385cb39b9802a9b93b1ddf37388d7126
marcus2016-12-10d01t14.flac:f140111a5196cae6d89613ccf666b690
marcus2016-12-10d01t15.flac:9c4c7d5b06f1f30142f8f3725933923a
marcus2016-12-10d01t16.flac:7f968bad15e4a3fd84a4f9303213f248
marcus2016-12-10d01t17.flac:f3eb5ba909286092f7c03159fb38c44d
marcus2016-12-10d01t18.flac:e73b01b2dcccc43aa1d0f959b8c69301
marcus2016-12-10d01t19.flac:34c4ca8f78a4629fdb378fae253d4959

 length     expanded size    cdr  WAVE problems  fmt   ratio  filename
     0:15.40        2740124 B   ---   --   ---xx   flac  0.3958  marcus2016-12-10d01t01.flac
     4:21.24       46096892 B   ---   --   ---xx   flac  0.5429  marcus2016-12-10d01t02.flac
     1:49.22       19279388 B   ---   --   ---xx   flac  0.5970  marcus2016-12-10d01t03.flac
     0:23.09        4078412 B   ---   --   ---xx   flac  0.5771  marcus2016-12-10d01t04.flac
     6:30.51       68915996 B   ---   --   ---xx   flac  0.4840  marcus2016-12-10d01t05.flac
     5:20.07       56464508 B   ---   --   ---xx   flac  0.5479  marcus2016-12-10d01t06.flac
     3:40.59       38946812 B   ---   --   ---xx   flac  0.5682  marcus2016-12-10d01t07.flac
     2:04.46       21981836 B   ---   --   ---xx   flac  0.5105  marcus2016-12-10d01t08.flac
     1:25.03       15001100 B   ---   --   ---xx   flac  0.5590  marcus2016-12-10d01t09.flac
     7:01.03       74271500 B   ---   --   ---xx   flac  0.5222  marcus2016-12-10d01t10.flac
     7:37.58       80751260 B   ---   --   ---xx   flac  0.5743  marcus2016-12-10d01t11.flac
     6:21.05       67220204 B   ---   --   ---xx   flac  0.5452  marcus2016-12-10d01t12.flac
     2:03.12       21725468 B   ---   --   ---xx   flac  0.4006  marcus2016-12-10d01t13.flac
     6:26.62       68236268 B   ---   --   ---xx   flac  0.5221  marcus2016-12-10d01t14.flac
     0:30.18        5334380 B   ---   --   ---xx   flac  0.4074  marcus2016-12-10d01t15.flac
     6:30.43       68897180 B   ---   --   ---xx   flac  0.5322  marcus2016-12-10d01t16.flac
     1:04.68       11449580 B   ---   --   ---xx   flac  0.4619  marcus2016-12-10d01t17.flac
     5:35.33       59171660 B   ---   --   ---xx   flac  0.5532  marcus2016-12-10d01t18.flac
     0:52.40        9266924 B   ---   --   ---xx   flac  0.4565  marcus2016-12-10d01t19.flac
    69:54.03      739829492 B                            0.5315  (19 files)





More information about the bittorrent mailing list