[bittorrent] Holly Bowling Solo Warren Haynes Christmas Jam Asheville Civic Center Asheville, North Carolina 12/10/2016 (Schoeps CCM4V'S FOB)

Automated Mailer noreply-bt.e at etree.org
Mon Dec 12 17:14:29 UTC 2016


Band:           Other
Torrent Name:   Holly Bowling Solo Warren Haynes Christmas Jam Asheville Civic Center Asheville, North Carolina 12/10/2016 (Schoeps CCM4V'S FOB)
Uploaded by:    zmanatl
DB Link:        
Details:        http://bt.etree.org/details.php?id=590284

Contact the seeder at http://db.etree.org/zmanatl

If the link to this show does not work, it was probably removed for
being non-trade-friendly.

Description / text file:
-------------------------
Holly Bowling Solo
Warren Haynes Christmas Jam
Asheville Civic Center
Asheville, North Carolina
12/10/2016 

Source: Schoeps CCM4V's>Lunatec V2>Benchmark AD2K>
Sound Devices 722 (24/44)
FOB/DFC/KFC/ZFC/AARP 37' From Stage, 6' High
DSP: Sound Devices 722>Sound Forge 10.0>CD Wave>flac(16)
ID3 Tagged In Foobar 2000
Recorded By: Z-Man
Seeded By: Z-Man

Disc I 

1st Set:
01 Jam >
02 Crytical Envelopment >
03 The Other One >
04 Crytical Envelopment >
05 Taste
06 The Inlaw Josie Wales
2nd Set:
07 Help On The Way >
08 Slipknot! >
09 Cassidy >
10 Bird Song

Disc II 

3rd Set:
01 A Song I Heard The Ocean Sing >
02 Crazy Fingers >
03 The Other One >
04 Jam >
05 A Song I Heard The Ocean Sing 
4th Set:
06 Holly Thanks
07 *#Terrapin Station >
08 Terrapin Transit >
09 At A Siding >
10 Terrapin Flyer >
11 Terrapin Refrain >
12 Slipknot! >
13 Franklin's Tower

* With Audience Vocals Participation 
# Kick Drum Soundcheck Can Be Heard

holly2016-12-10d01t01.flac:f12b20badf7d14e1562cf5ee8c5d34c2
holly2016-12-10d01t02.flac:9d12a84f423a43b1be5bdaf758f26e04
holly2016-12-10d01t03.flac:50f062e5b8d4fe57d5174c08b574a9b3
holly2016-12-10d01t04.flac:477be468ed28c6d0cdd237ad997c022c
holly2016-12-10d01t05.flac:002e9bfd09bf60a45b4cd8d0f9434a6e
holly2016-12-10d01t06.flac:b820c708efcce96bea64dde09a917d5f
holly2016-12-10d01t07.flac:c234570f40772ade3c337ec77d1acb00
holly2016-12-10d01t08.flac:34a4bc2873b68e4e33987578467fe305
holly2016-12-10d01t09.flac:9ab347d0454bd444e5e1eac72cf98736
holly2016-12-10d01t10.flac:d571794578f81baebcdc974f453510b4
holly2016-12-10d02t01.flac:5f6a2f8f7e5f8702f59ac1d3f29e7dd0
holly2016-12-10d02t02.flac:31a5e0ae8f33ee3c6a2d2c34ec3176e0
holly2016-12-10d02t03.flac:5d1d2dade897d530a7553c255e66e559
holly2016-12-10d02t04.flac:19e769a43e3827a9945da5a174a7af5c
holly2016-12-10d02t05.flac:69634bc7af34053222d7c60b240c2835
holly2016-12-10d02t06.flac:e0abb2146fcc08282b874e079d06e65d
holly2016-12-10d02t07.flac:7c66afabc6036ba8e8650f0938fb58c5
holly2016-12-10d02t08.flac:b2ac68a7909ae93f3c4beee327cf0292
holly2016-12-10d02t09.flac:016bced51f44bb01a283f2dc16950f52
holly2016-12-10d02t10.flac:cbacfa4f22cead6bfeae474fc7ae151d
holly2016-12-10d02t11.flac:272dc66bb8c7f8640f0f22cc941dcfcb
holly2016-12-10d02t12.flac:6d48c904b52450375ef33a9de21f7bed
holly2016-12-10d02t13.flac:79c20bc0599db1725edfa21176494539

length     expanded size    cdr  WAVE problems  fmt   ratio  filename
     1:15.20       13277084 B   ---   --   ---xx   flac  0.2805  holly2016-12-10d01t01.flac
     3:46.44       39969932 B   ---   --   ---xx   flac  0.3508  holly2016-12-10d01t02.flac
     6:03.56       64164956 B   ---   --   ---xx   flac  0.3784  holly2016-12-10d01t03.flac
     0:33.69        5983532 B   ---   --   ---xx   flac  0.3829  holly2016-12-10d01t04.flac
     7:04.45       74899484 B   ---   --   ---xx   flac  0.3876  holly2016-12-10d01t05.flac
     3:42.08       39179660 B   ---   --   ---xx   flac  0.3507  holly2016-12-10d01t06.flac
     4:24.24       46626092 B   ---   --   ---xx   flac  0.4075  holly2016-12-10d01t07.flac
     4:40.71       49559036 B   ---   --   ---xx   flac  0.4099  holly2016-12-10d01t08.flac
     6:55.34       73286012 B   ---   --   ---xx   flac  0.4164  holly2016-12-10d01t09.flac
     4:13.16       44666876 B   ---   --   ---xx   flac  0.4165  holly2016-12-10d01t10.flac
     3:36.07       38118908 B   ---   --   ---xx   flac  0.4441  holly2016-12-10d02t01.flac
     6:26.10       68113964 B   ---   --   ---xx   flac  0.4453  holly2016-12-10d02t02.flac
     1:39.07       17480108 B   ---   --   ---xx   flac  0.4384  holly2016-12-10d02t03.flac
     5:38.69       59785532 B   ---   --   ---xx   flac  0.4270  holly2016-12-10d02t04.flac
     0:56.63       10026620 B   ---   --   ---xx   flac  0.4491  holly2016-12-10d02t05.flac
     0:18.41        3271676 B   ---   --   ---xx   flac  0.4330  holly2016-12-10d02t06.flac
    10:48.35      114389564 B   ---   --   ---xx   flac  0.4379  holly2016-12-10d02t07.flac
     0:45.48        8050940 B   ---   --   ---xx   flac  0.4495  holly2016-12-10d02t08.flac
     1:20.14       14144972 B   ---   --   ---xx   flac  0.4390  holly2016-12-10d02t09.flac
     2:41.33       28478060 B   ---   --   ---xx   flac  0.4280  holly2016-12-10d02t10.flac
     1:34.43       16682780 B   ---   --   ---xx   flac  0.4093  holly2016-12-10d02t11.flac
     1:08.53       12119900 B   ---   --   ---xx   flac  0.4106  holly2016-12-10d02t12.flac
     3:26.28       36404300 B   ---   --   ---xx   flac  0.4280  holly2016-12-10d02t13.flac
    83:01.13      878679988 B                            0.4113  (23 files)



Holly Bowling Solo
Warren Haynes Christmas Jam
Asheville Civic Center
Asheville, North Carolina
12/10/2016 

Source: Schoeps CCM4V's>Lunatec V2>Benchmark AD2K>
Sound Devices 722 (24/44)
FOB/DFC/KFC/ZFC/AARP 37' From Stage, 6' High
DSP: Sound Devices 722>Sound Forge 10.0>CD Wave>flac(16)
ID3 Tagged In Foobar 2000
Recorded By: Z-Man
Seeded By: Z-Man

Disc I 

1st Set:
01 Jam >
02 Crytical Envelopment >
03 The Other One >
04 Crytical Envelopment >
05 Taste
06 The Inlaw Josie Wales
2nd Set:
07 Help On The Way >
08 Slipknot! >
09 Cassidy >
10 Bird Song

Disc II 

3rd Set:
01 A Song I Heard The Ocean Sing >
02 Crazy Fingers >
03 The Other One >
04 Jam >
05 A Song I Heard The Ocean Sing 
4th Set:
06 Holly Thanks
07 *#Terrapin Station >
08 Terrapin Transit >
09 At A Siding >
10 Terrapin Flyer >
11 Terrapin Refrain >
12 Slipknot! >
13 Franklin's Tower

* With Audience Vocals Participation 
# Kick Drum Soundcheck Can Be Heard

holly2016-12-10d01t01.flac:f12b20badf7d14e1562cf5ee8c5d34c2
holly2016-12-10d01t02.flac:9d12a84f423a43b1be5bdaf758f26e04
holly2016-12-10d01t03.flac:50f062e5b8d4fe57d5174c08b574a9b3
holly2016-12-10d01t04.flac:477be468ed28c6d0cdd237ad997c022c
holly2016-12-10d01t05.flac:002e9bfd09bf60a45b4cd8d0f9434a6e
holly2016-12-10d01t06.flac:b820c708efcce96bea64dde09a917d5f
holly2016-12-10d01t07.flac:c234570f40772ade3c337ec77d1acb00
holly2016-12-10d01t08.flac:34a4bc2873b68e4e33987578467fe305
holly2016-12-10d01t09.flac:9ab347d0454bd444e5e1eac72cf98736
holly2016-12-10d01t10.flac:d571794578f81baebcdc974f453510b4
holly2016-12-10d02t01.flac:5f6a2f8f7e5f8702f59ac1d3f29e7dd0
holly2016-12-10d02t02.flac:31a5e0ae8f33ee3c6a2d2c34ec3176e0
holly2016-12-10d02t03.flac:5d1d2dade897d530a7553c255e66e559
holly2016-12-10d02t04.flac:19e769a43e3827a9945da5a174a7af5c
holly2016-12-10d02t05.flac:69634bc7af34053222d7c60b240c2835
holly2016-12-10d02t06.flac:e0abb2146fcc08282b874e079d06e65d
holly2016-12-10d02t07.flac:7c66afabc6036ba8e8650f0938fb58c5
holly2016-12-10d02t08.flac:b2ac68a7909ae93f3c4beee327cf0292
holly2016-12-10d02t09.flac:016bced51f44bb01a283f2dc16950f52
holly2016-12-10d02t10.flac:cbacfa4f22cead6bfeae474fc7ae151d
holly2016-12-10d02t11.flac:272dc66bb8c7f8640f0f22cc941dcfcb
holly2016-12-10d02t12.flac:6d48c904b52450375ef33a9de21f7bed
holly2016-12-10d02t13.flac:79c20bc0599db1725edfa21176494539

length     expanded size    cdr  WAVE problems  fmt   ratio  filename
     1:15.20       13277084 B   ---   --   ---xx   flac  0.2805  holly2016-12-10d01t01.flac
     3:46.44       39969932 B   ---   --   ---xx   flac  0.3508  holly2016-12-10d01t02.flac
     6:03.56       64164956 B   ---   --   ---xx   flac  0.3784  holly2016-12-10d01t03.flac
     0:33.69        5983532 B   ---   --   ---xx   flac  0.3829  holly2016-12-10d01t04.flac
     7:04.45       74899484 B   ---   --   ---xx   flac  0.3876  holly2016-12-10d01t05.flac
     3:42.08       39179660 B   ---   --   ---xx   flac  0.3507  holly2016-12-10d01t06.flac
     4:24.24       46626092 B   ---   --   ---xx   flac  0.4075  holly2016-12-10d01t07.flac
     4:40.71       49559036 B   ---   --   ---xx   flac  0.4099  holly2016-12-10d01t08.flac
     6:55.34       73286012 B   ---   --   ---xx   flac  0.4164  holly2016-12-10d01t09.flac
     4:13.16       44666876 B   ---   --   ---xx   flac  0.4165  holly2016-12-10d01t10.flac
     3:36.07       38118908 B   ---   --   ---xx   flac  0.4441  holly2016-12-10d02t01.flac
     6:26.10       68113964 B   ---   --   ---xx   flac  0.4453  holly2016-12-10d02t02.flac
     1:39.07       17480108 B   ---   --   ---xx   flac  0.4384  holly2016-12-10d02t03.flac
     5:38.69       59785532 B   ---   --   ---xx   flac  0.4270  holly2016-12-10d02t04.flac
     0:56.63       10026620 B   ---   --   ---xx   flac  0.4491  holly2016-12-10d02t05.flac
     0:18.41        3271676 B   ---   --   ---xx   flac  0.4330  holly2016-12-10d02t06.flac
    10:48.35      114389564 B   ---   --   ---xx   flac  0.4379  holly2016-12-10d02t07.flac
     0:45.48        8050940 B   ---   --   ---xx   flac  0.4495  holly2016-12-10d02t08.flac
     1:20.14       14144972 B   ---   --   ---xx   flac  0.4390  holly2016-12-10d02t09.flac
     2:41.33       28478060 B   ---   --   ---xx   flac  0.4280  holly2016-12-10d02t10.flac
     1:34.43       16682780 B   ---   --   ---xx   flac  0.4093  holly2016-12-10d02t11.flac
     1:08.53       12119900 B   ---   --   ---xx   flac  0.4106  holly2016-12-10d02t12.flac
     3:26.28       36404300 B   ---   --   ---xx   flac  0.4280  holly2016-12-10d02t13.flac
    83:01.13      878679988 B                            0.4113  (23 files)






















More information about the bittorrent mailing list