[bittorrent] Jamey Johnson And Alison Krauss Warren Haynes Christmas Jam Asheville Civic Center Asheville, North Carolina 12/10/2016 (Schoeps CCM4V'S FOB)

Automated Mailer noreply-bt.e at etree.org
Mon Dec 12 05:06:09 UTC 2016


Band:           Other
Torrent Name:   Jamey Johnson And Alison Krauss Warren Haynes Christmas Jam Asheville Civic Center Asheville, North Carolina 12/10/2016 (Schoeps CCM4V'S FOB)
Uploaded by:    zmanatl
DB Link:        
Details:        http://bt.etree.org/details.php?id=590272

Contact the seeder at http://db.etree.org/zmanatl

If the link to this show does not work, it was probably removed for
being non-trade-friendly.

Description / text file:
-------------------------
Jamey Johnson And Alison Krauss
Warren Haynes Christmas Jam
Asheville Civic Center
Asheville, North Carolina
12/10/2016 

Source: Schoeps CCM4V's>Lunatec V2>Benchmark AD2K>
Sound Devices 722 (24/44)
FOB/DFC/KFC/ZFC/AARP 37' From Stage, 6' High
DSP: Sound Devices 722>Sound Forge 10.0>CD Wave>flac(16)
ID3 Tagged In Foobar 2000
Recorded By: Z-Man
Seeded By: Z-Man

Disc I 

01 High Cost Of Living
02 Make The World Go Away
03 I Ain't The One
04 John Deere Tractor
05 Heartache
06 Even The Skies Are Blue
07 Dreaming My Dreams With You
08 Lay Down Beside Me
09 My Dixie Darling
10 When You Say Nothing At All
11 *In Color

* With Howard Johnson

alison2016-12-10d01t01.flac:7f438de6db08aff20af5f29bbc67dfc7
alison2016-12-10d01t02.flac:e01966e22f9725c702d8ea19e45c7c0e
alison2016-12-10d01t03.flac:d8bd945ad151f2987c9eba800de7c408
alison2016-12-10d01t04.flac:5ccc91a640084271d7a73d2b1606a3c9
alison2016-12-10d01t05.flac:8024f56593638577449f2fea46a5e40a
alison2016-12-10d01t06.flac:709ea82a8b871858ac9c445c6019050e
alison2016-12-10d01t07.flac:b6d656787c194c582a1dadd2e98a1a11
alison2016-12-10d01t08.flac:6a273dd7009f8c1c888f309fe6d2f756
alison2016-12-10d01t09.flac:473bf2da53755b19fb784009e172387f
alison2016-12-10d01t10.flac:de5e2d7894ded9e80f3f55b85529afb3
alison2016-12-10d01t11.flac:a492f75d921d6a11d90fe0b07c1cd9ac

 length     expanded size    cdr  WAVE problems  fmt   ratio  filename
     7:20.62       77761868 B   ---   --   ---xx   flac  0.5177  alison2016-12-10d01t01.flac
     3:45.64       39840572 B   ---   --   ---xx   flac  0.4160  alison2016-12-10d01t02.flac
     2:52.65       30493724 B   ---   --   ---xx   flac  0.5063  alison2016-12-10d01t03.flac
     4:35.19       48554732 B   ---   --   ---xx   flac  0.4610  alison2016-12-10d01t04.flac
     4:52.02       51513548 B   ---   --   ---xx   flac  0.5132  alison2016-12-10d01t05.flac
     4:01.17       42552428 B   ---   --   ---xx   flac  0.3939  alison2016-12-10d01t06.flac
     3:36.31       38175356 B   ---   --   ---xx   flac  0.3719  alison2016-12-10d01t07.flac
     3:07.56       33118556 B   ---   --   ---xx   flac  0.3736  alison2016-12-10d01t08.flac
     3:19.36       35188316 B   ---   --   ---xx   flac  0.5072  alison2016-12-10d01t09.flac
     5:27.17       57722828 B   ---   --   ---xx   flac  0.4283  alison2016-12-10d01t10.flac
     4:36.36       48771116 B   ---   --   ---xx   flac  0.4636  alison2016-12-10d01t11.flac
    47:35.30      503693044 B                            0.4558  (11 files)






                      












More information about the bittorrent mailing list