[bittorrent] Michael McDonald Warren Haynes Christmas Jam Asheville Civic Center Asheville, North Carolina 12/10/2016 (Schoeps CCM4V'S FOB)

Automated Mailer noreply-bt.e at etree.org
Mon Dec 12 04:25:57 UTC 2016


Band:           Other
Torrent Name:   Michael McDonald Warren Haynes Christmas Jam Asheville Civic Center Asheville, North Carolina 12/10/2016 (Schoeps CCM4V'S FOB)
Uploaded by:    zmanatl
DB Link:        
Details:        http://bt.etree.org/details.php?id=590269

Contact the seeder at http://db.etree.org/zmanatl

If the link to this show does not work, it was probably removed for
being non-trade-friendly.

Description / text file:
-------------------------
Michael McDonald
Warren Haynes Christmas Jam
Asheville Civic Center
Asheville, North Carolina
12/10/2016 

Source: Schoeps CCM4V's>Lunatec V2>Benchmark AD2K>
Sound Devices 722 (24/44)
FOB/DFC/KFC/ZFC/AARP 37' From Stage, 6' High
DSP: Sound Devices 722>Sound Forge 10.0>CD Wave>flac(16)
ID3 Tagged In Foobar 2000
Recorded By: Z-Man
Seeded By: Z-Man

Disc I 

01 Banter
02 Freedom Highway
03 Sweet Freedom
04 *I Keep Forgettin'
05 What A Fool Believes
06 Jam >
07 Takin' It To The Street

* With Branford Marsalis On Saxophone

Michael McDonald - Keyboards And Vocals
Audley Freed - Guitar
John Medeski - Keyboards
Don Was - Bass
Terrence Higgins - Drums

michael2016-12-10d01t01.flac:201a07c7e71b58f9f6fb8dbcd47c058c
michael2016-12-10d01t02.flac:ea2ea2b41eef2b80f82376e8d28be3f0
michael2016-12-10d01t03.flac:65e24749966bd4ee2918c29ea5bf8c42
michael2016-12-10d01t04.flac:b78758abc4ff4cccc01062039beebe0b
michael2016-12-10d01t05.flac:9b8053c516c3655a249af90b51d59c59
michael2016-12-10d01t06.flac:50c527fd8064a75711d5cca3f6d78fc9
michael2016-12-10d01t07.flac:4d081c0d9572897ea7b8dd8d6ffd2deb

 length     expanded size    cdr  WAVE problems  fmt   ratio  filename
     1:23.25       14700044 B   ---   --   ---xx   flac  0.4202  michael2016-12-10d01t01.flac
     3:28.59       36830012 B   ---   --   ---xx   flac  0.5051  michael2016-12-10d01t02.flac
     5:34.67       59075228 B   ---   --   ---xx   flac  0.5017  michael2016-12-10d01t03.flac
     3:51.19       40793132 B   ---   --   ---xx   flac  0.4679  michael2016-12-10d01t04.flac
     3:55.02       41458748 B   ---   --   ---xx   flac  0.4926  michael2016-12-10d01t05.flac
     2:03.12       21725468 B   ---   --   ---xx   flac  0.3921  michael2016-12-10d01t06.flac
     5:03.34       53529212 B   ---   --   ---xx   flac  0.4931  michael2016-12-10d01t07.flac
    25:19.68      268111844 B                            0.4806  (7 files)






                      








More information about the bittorrent mailing list