[bittorrent] Warren Haynes Solo Acoustic Warren Haynes Christmas Jam Asheville Civic Center Asheville, North Carolina 12/10/2016 (Schoeps CCM4V'S FOB)

Automated Mailer noreply-bt.e at etree.org
Mon Dec 12 03:43:06 UTC 2016


Band:           Warren Haynes
Torrent Name:   Warren Haynes Solo Acoustic Warren Haynes Christmas Jam Asheville Civic Center Asheville, North Carolina 12/10/2016 (Schoeps CCM4V'S FOB)
Uploaded by:    zmanatl
DB Link:        
Details:        http://bt.etree.org/details.php?id=590268

Contact the seeder at http://db.etree.org/zmanatl

If the link to this show does not work, it was probably removed for
being non-trade-friendly.

Description / text file:
-------------------------
Warren Haynes Solo Acoustic
Warren Haynes Christmas Jam
Asheville Civic Center
Asheville, North Carolina
12/10/2016 

Source: Schoeps CCM4V's>Lunatec V2>Benchmark AD2K>
Sound Devices 722 (24/44)
FOB/DFC/KFC/ZFC/AARP 37' From Stage, 6' High
DSP: Sound Devices 722>Sound Forge 10.0>CD Wave>flac(16)
ID3 Tagged In Foobar 2000
Recorded By: Z-Man
Seeded By: Z-Man

Disc I 

01 Warren Banter
02 The Real Thing
03 Stone Me 
04 Banter/Outro

warren2016-12-10d01t01.flac:a0a10cbff2d3d5d1fab18363eb09bfeb
warren2016-12-10d01t02.flac:cdff62787ef44f189cf9b0d8cd2ca289
warren2016-12-10d01t03.flac:8158ed97b465391d717d17fa42563381
warren2016-12-10d01t04.flac:2ad008bd3c83988bee87e62d8f50512b

 length     expanded size    cdr  WAVE problems  fmt   ratio  filename
     0:58.36       10315916 B   ---   --   ---xx   flac  0.3914  warren2016-12-10d01t01.flac
     6:59.36       73996316 B   ---   --   ---xx   flac  0.3842  warren2016-12-10d01t02.flac
     4:34.42       48432428 B   ---   --   ---xx   flac  0.4059  warren2016-12-10d01t03.flac
     1:08.10       12018764 B   ---   --   ---xx   flac  0.4351  warren2016-12-10d01t04.flac
    13:40.49      144763424 B                            0.3962  (4 files)



 









                      









More information about the bittorrent mailing list