[bittorrent] Tom Hamilton American Babies Aisle 5 Atlanta, Georgia 12/8/2016 (Schoeps CCM4V'S FOB)

Automated Mailer noreply-bt.e at etree.org
Mon Dec 12 02:08:10 UTC 2016


Band:           Other
Torrent Name:   Tom Hamilton American Babies Aisle 5 Atlanta, Georgia 12/8/2016 (Schoeps CCM4V'S FOB)
Uploaded by:    zmanatl
DB Link:        
Details:        http://bt.etree.org/details.php?id=590264

Contact the seeder at http://db.etree.org/zmanatl

If the link to this show does not work, it was probably removed for
being non-trade-friendly.

Description / text file:
-------------------------
Tom Hamilton American Babies
Aisle 5
Atlanta, Georgia
12/8/2016 

Source: Schoeps CCM4V's>Lunatec V2>Benchmark AD2K>
Sound Devices 722 (24/44)
FOB/DFC/KFC/ZFC/AARP 27' From Stage, 7 1/2' High
DSP: Sound Devices 722>Sound Forge 10.0>CD Wave>flac(16)
ID3 Tagged In Foobar 2000
Recorded By: Z-Man
Seeded By: Z-Man

Disc I 

01 Greeting By Tom Hamilton
02 Ticket To Ride >
03 Jam >
04 State Police >
05 Jam >
06 Runnin' In Place >
07 Rain   
08 Bitches And Candy >
09 Polly Pam >
10 She Came In Through The Bathroom Window >
11 Bitches And Candy 

Disc II 

01 Banter
02 She Said >
03 What Does It Mean To Be
Encore:
04 Banter/Tuning
05 Jack Straw 

Tom Performed Several Beatles Tunes In Memory Of The Anniversary Of The
Passing Of John Lennon.

tom2016-12-08d01t01.flac:c6857a88edffbd27211d4497f3420475
tom2016-12-08d01t02.flac:d2b656d86f2794c3ef23effc4b686381
tom2016-12-08d01t03.flac:678bb20b6508f46135e4c47679d04d8d
tom2016-12-08d01t04.flac:1e59824e6dfcc62bd970767a504cff7e
tom2016-12-08d01t05.flac:587c731199910fd521317a980ebafa00
tom2016-12-08d01t06.flac:baf94ca1460032f93fd3d17d55c8b144
tom2016-12-08d01t07.flac:7a5eba8bbae2fcaacd8d873cf7072cb7
tom2016-12-08d01t08.flac:4ccdd2035ae773737fb3a452b69f1c8d
tom2016-12-08d01t09.flac:208f548a5a17dca939e6109ba416774a
tom2016-12-08d01t10.flac:a9fd8ac83beed9edbf713f545da40938
tom2016-12-08d01t11.flac:79f47a2ff39581dc4e2d22cca07a58bc
tom2016-12-08d02t01.flac:729bdd8c49c365694039af4cb555d6fe
tom2016-12-08d02t02.flac:85784d5b63c190e6598e0a5caafcd493
tom2016-12-08d02t03.flac:7989933cab51948e5aa3fec69c4a3ba2
tom2016-12-08d02t04.flac:3d2af0da363e1ebf0395bc033b37bea9
tom2016-12-08d02t05.flac:859d7654ac09ce5027eedc1a8ee478c3

 length     expanded size    cdr  WAVE problems  fmt   ratio  filename
     0:29.20        5162684 B   ---   --   ---xx   flac  0.2725  tom2016-12-08d01t01.flac
     3:06.49       32925692 B   ---   --   ---xx   flac  0.4743  tom2016-12-08d01t02.flac
     5:56.31       62871356 B   ---   --   ---xx   flac  0.5032  tom2016-12-08d01t03.flac
     6:23.38       67650620 B   ---   --   ---xx   flac  0.4958  tom2016-12-08d01t04.flac
    11:58.06      126669356 B   ---   --   ---xx   flac  0.4429  tom2016-12-08d01t05.flac
     2:19.36       24604316 B   ---   --   ---xx   flac  0.4458  tom2016-12-08d01t06.flac
     5:07.34       54234812 B   ---   --   ---xx   flac  0.4774  tom2016-12-08d01t07.flac
    10:17.34      108918812 B   ---   --   ---xx   flac  0.4727  tom2016-12-08d01t08.flac
     1:23.09       14662412 B   ---   --   ---xx   flac  0.4941  tom2016-12-08d01t09.flac
     1:46.59       18837212 B   ---   --   ---xx   flac  0.5240  tom2016-12-08d01t10.flac
     9:25.32       99741308 B   ---   --   ---xx   flac  0.4818  tom2016-12-08d01t11.flac
     1:01.15       10795724 B   ---   --   ---xx   flac  0.2474  tom2016-12-08d02t01.flac
    10:21.49      109659692 B   ---   --   ---xx   flac  0.4817  tom2016-12-08d02t02.flac
     9:38.10      101982764 B   ---   --   ---xx   flac  0.4749  tom2016-12-08d02t03.flac
     0:52.16        9210476 B   ---   --   ---xx   flac  0.2575  tom2016-12-08d02t04.flac
     8:04.43       85478780 B   ---   --   ---xx   flac  0.4782  tom2016-12-08d02t05.flac
    88:11.31      933406016 B                            0.4703  (16 files)









More information about the bittorrent mailing list