[bittorrent] The Last Waltz Warren Haynes Christmas Jam Asheville Civic Center Aheville, North Carolina 12/10/2016 (Schoeps CCM4V'S FOB)

Automated Mailer noreply-bt.e at etree.org
Mon Dec 12 02:04:17 UTC 2016


Band:           Other
Torrent Name:   The Last Waltz Warren Haynes Christmas Jam Asheville Civic Center Aheville, North Carolina 12/10/2016 (Schoeps CCM4V'S FOB)
Uploaded by:    zmanatl
DB Link:        
Details:        http://bt.etree.org/details.php?id=590262

Contact the seeder at http://db.etree.org/zmanatl

If the link to this show does not work, it was probably removed for
being non-trade-friendly.

Description / text file:
-------------------------
The Last Waltz
Warren Haynes Christmas Jam
Asheville Civic Center
Asheville, North Carolina
12/10/2016 

Source: Schoeps CCM4V's>Lunatec V2>Benchmark AD2K>
Sound Devices 722 (24/44)
FOB/DFC/KFC/ZFC/AARP 37' From Stage, 6' High
DSP: Sound Devices 722>Sound Forge 10.0>CD Wave>flac(16)
ID3 Tagged In Foobar 2000
Recorded By: Z-Man
Seeded By: Z-Man

Disc I 

01 Intro
02 Up on Cripple Creek
03 The Shape I'm In
04 Stage Fright
05 Georgia on My Mind
06 *#The Weight 
07 Ophelia
08 It Makes No Difference
09 @Helpless 
10 ^+Mannish Boy 
11 ^+Further on Up the Road 
12 King Harvest (Has Surely Come)
13 The Night They Drove Ol' Dixie Down

Warren Haynes - Guitar And Vocals
Michael McDonald - Keyboards And Vocals
Don Was - Bass 
Jamey Johnson - Guitar And Vocals
John Medeski - Keyboards
Terence Higgins - Drums

* With Bob Weir Guitar And Vocals
# With Alison Krauss On Vocals
@ With Alison Krauss On Fiddle
^ With Smoky Greenwell On Harmonica
+ With "Steady Rollin'" Bob Margolin On Guita And Vocals

lastwaltz2016-12-10d01t01.flac:24b8fecf685a382efc5b0faa0bdd6b66
lastwaltz2016-12-10d01t02.flac:6fc2f4371d3292c96350058d4aea4151
lastwaltz2016-12-10d01t03.flac:d8f8b3ab33d43c6ad90e179ee3eb9f1e
lastwaltz2016-12-10d01t04.flac:6b924cc43a5a5a7d84163ba0cb7ab584
lastwaltz2016-12-10d01t05.flac:260454f14778c52804443a2d4c841cf1
lastwaltz2016-12-10d01t06.flac:135e1b7362cf4e2db6a5f28f7148ef6a
lastwaltz2016-12-10d01t07.flac:d0f425f6bd4a8d2c392cf5c2fef0f1f2
lastwaltz2016-12-10d01t08.flac:dd6b3050e8f76ed5583ed644005d817a
lastwaltz2016-12-10d01t09.flac:cd1c79073ab93d13cf54db9601aa5840
lastwaltz2016-12-10d01t10.flac:e1878930ed26fd966ff01368dd1c8ed7
lastwaltz2016-12-10d01t11.flac:e780f1d1a4574eee7df64dc6de412ea2
lastwaltz2016-12-10d01t12.flac:d401564a3567c12136736336c734dd36
lastwaltz2016-12-10d01t13.flac:1e71ac7c235492dfb639227d09ebabd8

length     expanded size    cdr  WAVE problems  fmt   ratio  filename
     0:36.23        6404540 B   ---   --   ---xx   flac  0.3870  lastwaltz2016-12-10d01t01.flac
     6:12.45       65726684 B   ---   --   ---xx   flac  0.5160  lastwaltz2016-12-10d01t02.flac
     4:18.52       45633548 B   ---   --   ---xx   flac  0.5077  lastwaltz2016-12-10d01t03.flac
     5:05.40       53896124 B   ---   --   ---xx   flac  0.5119  lastwaltz2016-12-10d01t04.flac
     9:05.63       96286220 B   ---   --   ---xx   flac  0.4412  lastwaltz2016-12-10d01t05.flac
     5:19.26       56332796 B   ---   --   ---xx   flac  0.4747  lastwaltz2016-12-10d01t06.flac
     4:38.44       49142732 B   ---   --   ---xx   flac  0.5071  lastwaltz2016-12-10d01t07.flac
     6:55.12       73234268 B   ---   --   ---xx   flac  0.4789  lastwaltz2016-12-10d01t08.flac
     6:46.00       71618444 B   ---   --   ---xx   flac  0.4054  lastwaltz2016-12-10d01t09.flac
     8:17.26       87731996 B   ---   --   ---xx   flac  0.5073  lastwaltz2016-12-10d01t10.flac
     6:33.25       69384044 B   ---   --   ---xx   flac  0.4966  lastwaltz2016-12-10d01t11.flac
     4:11.59       44415212 B   ---   --   ---xx   flac  0.4717  lastwaltz2016-12-10d01t12.flac
     5:05.16       53839676 B   ---   --   ---xx   flac  0.4837  lastwaltz2016-12-10d01t13.flac
    73:05.56      773646284 B                            0.4800  (13 files)
 







More information about the bittorrent mailing list