[bittorrent] gd1983-03-26.nak300.craigl.137371.flac1644

Automated Mailer noreply-bt.e at etree.org
Mon Dec 12 00:00:41 UTC 2016


Band:           Grateful Dead
Torrent Name:   gd1983-03-26.nak300.craigl.137371.flac1644
Uploaded by:    nfagdtrfb
DB Link:        
Details:        http://bt.etree.org/details.php?id=590257

Contact the seeder at http://db.etree.org/nfagdtrfb

If the link to this show does not work, it was probably removed for
being non-trade-friendly.

Description / text file:
-------------------------
GRATEFUL DEAD
Aladdin Theatre
Las Vegas NV
03-26-1983

s1t01 crowd
s1t02 Jack Straw
s1t03 Friend of the Devil
s1t04 Little Red Rooster
s1t05 Brown Eyed Women
s1t06 Mama Tried >
s1t07 Mexicali Blues
s1t08 Althea
s1t09 Brother Esau >
s1t10 Deal >
s1t11 Promised Land

s2t01 Scarlet Begonias >
s2t02 Fire on the Mountain
s2t03 Estimated Prophet >
s2t04 Eyes of the World >
s2t05 The Other One >
s2t06 Drums >
s2t07 Space >
s2t08 The Other One >
s2t09 Stella Blue >
s2t10 Around & Around >
s2t11 One More Saturday Night
s2t12 Encore: Touch of Grey

AUD: Nakamichi CM300/CP4 shotguns > Sony TC-D5M > Maxell XLIIS, 
mics clamped to balcony rail center, recording by Craig L.

Transfer: MAC > Nakamichi CR-5A > Edirol FA-66 > Wavelab 2448 > 
R8Brain SRC > Wavelab (insert patches) > CD-Wave > TLH > FLAC 
1644 tagged. Transferred by Andrew F. 12/2016

Note: ID-81092 patches; Rooster 0:00 > 0:04, Other One 0:49 > 
1:04, Drums 0:28 > 6:45. Thanks Jon Pasternak for assistance!

    length     expanded size    cdr  WAVE problems  fmt   ratio  filename
     0:47.26        8351996 B   ---   --   ---xx   flac  0.5481  gd1983-03-26s1t01.flac
     5:20.60       56589164 B   ---   --   ---xx   flac  0.6165  gd1983-03-26s1t02.flac
     9:05.25       96196844 B   ---   --   ---xx   flac  0.6005  gd1983-03-26s1t03.flac
     9:08.22       96718988 B   ---   --   ---xx   flac  0.6029  gd1983-03-26s1t04.flac
     4:51.26       51393596 B   ---   --   ---xx   flac  0.6242  gd1983-03-26s1t05.flac
     2:54.39       30785372 B   ---   --   ---xx   flac  0.6177  gd1983-03-26s1t06.flac
     5:00.66       53075276 B   ---   --   ---xx   flac  0.6277  gd1983-03-26s1t07.flac
     7:38.65       80944124 B   ---   --   ---xx   flac  0.6196  gd1983-03-26s1t08.flac
     6:11.64       65594972 B   ---   --   ---xx   flac  0.6282  gd1983-03-26s1t09.flac
     8:15.19       87362732 B   ---   --   ---xx   flac  0.6471  gd1983-03-26s1t10.flac
     4:07.26       43631996 B   ---   --   ---xx   flac  0.6460  gd1983-03-26s1t11.flac
    11:26.31      121083356 B   ---   --   ---xx   flac  0.6326  gd1983-03-26s2t01.flac
    11:17.66      119578076 B   ---   --   ---xx   flac  0.6348  gd1983-03-26s2t02.flac
    11:44.50      124303244 B   ---   --   ---xx   flac  0.6233  gd1983-03-26s2t03.flac
     8:30.36       90048716 B   ---   --   ---xx   flac  0.6511  gd1983-03-26s2t04.flac
     4:40.62       49537868 B   ---   --   ---xx   flac  0.6247  gd1983-03-26s2t05.flac
     7:23.69       78307532 B   ---   --   ---xx   flac  0.5171  gd1983-03-26s2t06.flac
     6:20.02       67036748 B   ---   --   ---xx   flac  0.5278  gd1983-03-26s2t07.flac
     3:59.63       42307820 B   ---   --   ---xx   flac  0.6079  gd1983-03-26s2t08.flac
     7:30.73       79551740 B   ---   --   ---xx   flac  0.5867  gd1983-03-26s2t09.flac
     3:49.54       40522652 B   ---   --   ---xx   flac  0.6365  gd1983-03-26s2t10.flac
     5:09.52       54629948 B   ---   --   ---xx   flac  0.6499  gd1983-03-26s2t11.flac
     6:36.74       70028492 B   ---   --   ---xx   flac  0.6565  gd1983-03-26s2t12.flac
   151:53.20     1607581252 B                            0.6165  (23 files)

No errors occured.




More information about the bittorrent mailing list