[bittorrent] gd1984-04-13.137369.set2.mk41.oade.bryant.miller.flac16

Automated Mailer noreply-bt.e at etree.org
Sun Dec 11 23:05:19 UTC 2016


Band:           Grateful Dead
Torrent Name:   gd1984-04-13.137369.set2.mk41.oade.bryant.miller.flac16
Uploaded by:    greendude
DB Link:        
Details:        http://bt.etree.org/details.php?id=590256

Contact the seeder at http://db.etree.org/greendude

If the link to this show does not work, it was probably removed for
being non-trade-friendly.

Description / text file:
-------------------------
Grateful Dead - April 13, 1984
Hampton Coliseum  - Hampton, VA

Recording Info:
(FOB) Schoeps CMC4/MK41 > Oade M118 > Cassette Master (Sony WM-D6C/Dennon DXM-90)

Transfer Info:
Cassette Master (Nakamichi DR-1) > Tascam DA-3000 (DSF 1-bit/5.8 MHz) >
KORG AudioGate 4 > Adobe Audition CC 2015 > Samplitude Pro X3 Suite > FLAC/24
(1 Disc FLAC)

Notes:
-- Two masters were used to make this complete
-- Recorded By Robert Bryant (patched out of the Oade brothers)
-- Thanks to Joe B. Jones for his help with the pitch correction

**This fileset is 16bit @ 44.1**
  24bit > 16bit with r8brain

Set 2:
01 - Scarlet Begonias >
02 - Fire On The Mountain
03 - Estimated Prophet >
04 - Drums >
05 - Space >
06 - The Wheel >
07 - Truckin' >
08 - Goin' Down The Road Feeling Bad >
09 - Around And Around >
10 - Good Lovin'


SHNTOOL OUTPUT:
    length     expanded size    cdr  WAVE problems  fmt   ratio  filename
    12:39.34      133967612 B   ---   --   ---xx   flac  0.6856  01 Scarlet Begonias.flac
    11:30.24      121772492 B   ---   --   ---xx   flac  0.6808  02 Fire On The Mountain.flac
    15:33.41      164677676 B   ---   --   ---xx   flac  0.6727  03 Estimated Prophet.flac
     6:41.20       70783484 B   ---   --   ---xx   flac  0.5742  04 Drums.flac
    10:00.42      105938828 B   ---   --   ---xx   flac  0.5730  05 Space.flac
     5:40.03       59983100 B   ---   --   ---xx   flac  0.6645  06 The Wheel.flac
     6:16.23       66380540 B   ---   --   ---xx   flac  0.6940  07 Truckin'.flac
     5:16.32       55817708 B   ---   --   ---xx   flac  0.6840  08 Goin' Down The Road Feeling Bad.flac
     3:45.50       39807644 B   ---   --   ---xx   flac  0.6722  09 Around And Around.flac
     7:46.54       82329452 B   ---   --   ---xx   flac  0.6882  10 Good Lovin'.flac
    85:10.23      901458536 B                            0.6594  (10 files)





More information about the bittorrent mailing list