[bittorrent] gd1969-08-03.137368.sbd.eaton.miller.flac16

Automated Mailer noreply-bt.e at etree.org
Sun Dec 11 23:01:21 UTC 2016


Band:           Grateful Dead
Torrent Name:   gd1969-08-03.137368.sbd.eaton.miller.flac16
Uploaded by:    greendude
DB Link:        
Details:        http://bt.etree.org/details.php?id=590255

Contact the seeder at http://db.etree.org/greendude

If the link to this show does not work, it was probably removed for
being non-trade-friendly.

Description / text file:
-------------------------
Grateful Dead - August 3, 1969
Family Dog At The Great Highway - San Francisco, CA  

Recording Info:
SBD > Reel Master (10" 1/2 track 15ips)

Transfer Info:
Reel Master (Studer A80) > Sonoma Systems DSD > Dobly Stretched Decode > WAV (24-bit/96k)

Mastering Info:
WAV > Adobe Audition CC 2015 > Samplitude Pro X3 Suite > FLAC/24 
(1 DVD FLAC)

Reel Transfer by Rob Eaton
Mastered By Charlie Miller
charliemiller87 at earthlink.net
November 15, 2016

Patch Info:
SBD > Cassette Master > Dat > FLAC (shnid=30652) supplies:
Dark Star (12:44 thru the end of the show)

Notes:
-- There are numerous guests on stage
-- There is some weird stuff going on with the tape during Caution
-- Thanks to Joe B. Jones for his help with the pitch correction

**This fileset is 16bit @ 44.1**
  24bit > 16bit with r8brain

Setlist:
01 - Tuning
02 - Hard To Handle
03 - Beat It On Down The Line
04 - Hi-Heel Sneakers
05 - High Time
06 - Mama Tried
07 - Dark Star
08 - Alligator ->
09 - Drums ->
10 - The Other One ->
11 - Caution (Do Not Stop On Tracks) ->
12 - And We Bid You Goodnight


SHNTOOL OUTPUT:
    length     expanded size    cdr  WAVE problems  fmt   ratio  filename
     4:42.35       49827164 B   ---   --   ---xx   flac  0.3238  01 Tuning.flac
     7:38.44       80894732 B   ---   --   ---xx   flac  0.5119  02 Hard To Handle.flac
     4:34.41       48430076 B   ---   --   ---xx   flac  0.5042  03 Beat It On Down The Line.flac
     7:42.18       81539180 B   ---   --   ---xx   flac  0.5276  04 Hi-Heel Sneakers.flac
     6:17.13       66533420 B   ---   --   ---xx   flac  0.4339  05 High Time.flac
     5:22.64       56951372 B   ---   --   ---xx   flac  0.4620  06 Mama Tried.flac
    23:26.24      248074892 B   ---   --   ---xx   flac  0.5048  07 Dark Star.flac
     4:01.52       42634748 B   ---   --   ---xx   flac  0.5625  08 Alligator.flac
     6:43.30       71159804 B   ---   --   ---xx   flac  0.5263  09 Drums.flac
    17:45.41      187962476 B   ---   --   ---xx   flac  0.5578  10 The Other One.flac
    17:56.09      189827612 B   ---   --   ---xx   flac  0.4232  11 Caution (Do Not Stop On Tracks).flac
     2:14.06       23651756 B   ---   --   ---xx   flac  0.3721  12 And We Bid You Goodnight.flac
   108:25.02     1147487232 B                            0.4887  (12 files)





More information about the bittorrent mailing list