[bittorrent] George Porter Jr. And Friends Warren Haynes Christmas Jam Asheville Civic Center Aheville, North Carolina 12/10/2016 (Schoeps CCM4V'S FOB)

Automated Mailer noreply-bt.e at etree.org
Sun Dec 11 14:20:11 UTC 2016


Band:           George Porter, Jr. & Runnin' P
Torrent Name:   George Porter Jr.  And Friends Warren Haynes Christmas Jam Asheville Civic Center Aheville, North Carolina 12/10/2016 (Schoeps CCM4V'S FOB)
Uploaded by:    zmanatl
DB Link:        
Details:        http://bt.etree.org/details.php?id=590245

Contact the seeder at http://db.etree.org/zmanatl

If the link to this show does not work, it was probably removed for
being non-trade-friendly.

Description / text file:
-------------------------
George Porter Jr. And Friends
Warren Haynes Christmas Jam
Asheville Civic Center
Asheville, North Carolina
12/10/2016 

Source: Schoeps CCM4V's>Lunatec V2>Benchmark AD2K>
Sound Devices 722 (24/44)
FOB/DFC/KFC/ZFC/AARP 37' From Stage, 6' High
DSP: Sound Devices 722>Sound Forge 10.0>CD Wave>flac(16)
ID3 Tagged In Foobar 2000
Recorded By: Z-Man
Seeded By: Z-Man

Disc I 

01 How Much Time 
02 *Just Kissed My Baby >
03 He Bite Me (The Dragon)  
04 #Sugaree >
05 #Aiko-Aiko

* With Marcus King On Guitar
# With Bob Weir On Guitar And Vocals

George Porter Jr. On Bass And Vocals 
Branford Marsalis On Saxophone
Eric Krasno On Guitar
John Medeski On Keyboards 
?  On Drums

george2016-12-10d01t01.flac:077607e25c0d442bbd01a312b0a266cc
george2016-12-10d01t02.flac:b25c1ffb16f893886160172a1626c7b8
george2016-12-10d01t03.flac:8515d0b070816f2cd631c3c06f1f0cd3
george2016-12-10d01t04.flac:d83b4ad09cf56a330dda38f0dadb60e7
george2016-12-10d01t05.flac:c263725a3be0f893754ed6fd143a3b61

  length     expanded size    cdr  WAVE problems  fmt   ratio  filename
     8:05.48       85666940 B   ---   --   ---xx   flac  0.4885  george2016-12-10d01t01.flac
     7:58.04       84328652 B   ---   --   ---xx   flac  0.4846  george2016-12-10d01t02.flac
     6:25.18       67956380 B   ---   --   ---xx   flac  0.4829  george2016-12-10d01t03.flac
    12:23.13      131095820 B   ---   --   ---xx   flac  0.4787  george2016-12-10d01t04.flac
     6:26.72       68259788 B   ---   --   ---xx   flac  0.4985  george2016-12-10d01t05.flac
    41:19.05      437307580 B                            0.4855  (5 files)


















More information about the bittorrent mailing list