[bittorrent] Bob Weir And Friends Warren Haynes Christmas Jam Asheville Civic Center Aheville, North Carolina 12/10/2016 (Schoeps CCM4V'S FOB)

Automated Mailer noreply-bt.e at etree.org
Sun Dec 11 13:02:30 UTC 2016


Band:           Other
Torrent Name:   Bob Weir And Friends Warren Haynes Christmas Jam Asheville Civic Center Aheville, North Carolina 12/10/2016 (Schoeps CCM4V'S FOB)
Uploaded by:    zmanatl
DB Link:        
Details:        http://bt.etree.org/details.php?id=590244

Contact the seeder at http://db.etree.org/zmanatl

If the link to this show does not work, it was probably removed for
being non-trade-friendly.

Description / text file:
-------------------------
Bob Weir And Friends
Warren Haynes Christmas Jam
Asheville Civic Center
Asheville, North Carolina
12/10/2016 

Source: Schoeps CCM4V's>Lunatec V2>Benchmark AD2K>
Sound Devices 722 (24/44)
FOB/DFC/KFC/ZFC/AARP 37' From Stage, 6' High
DSP: Sound Devices 722>Sound Forge 10.0>CD Wave>flac(16)
ID3 Tagged In Foobar 2000
Recorded By: Z-Man
Seeded By: Z-Man

Disc I 

01 *Easy To Slip
02 *#Peggy-o
03 *@$^Ghost Towns
04 *@$^Only A River
05 @$^&+!He's Gone >
06 @$^&+!Eyes Of The World >
07 @$^&+!Truckin' >
08 @$^&+!Ripple

* Bob Acoustic
# With Alison Krauss On Fiddle And Vocals
@ With Don Was On Bass
$ With Steve Kimock On Guitar
^ With Duane Trucks On Drums
& With Warren Haynes On Guitar
+ Branford Marsalis On Saxophone
! With Holly Bowling On Keyboards

bobweir2016-12-10d01t01.flac:dcbbd26b0d3c4873be328f969cf89967
bobweir2016-12-10d01t02.flac:b07b23e3a33b6f3de897c1d1d6dd5f10
bobweir2016-12-10d01t03.flac:71973f45c219d581dd389c9a76a6272a
bobweir2016-12-10d01t04.flac:c915ce80cbe42379fd1282d89ad1a3cd
bobweir2016-12-10d01t05.flac:539031f6c450b207b4af22887ab403a7
bobweir2016-12-10d01t06.flac:a709bc58fbdaa7c02e62d3b6bf46982d
bobweir2016-12-10d01t07.flac:f6ed35dc4edb342cca0abccb39143acb
bobweir2016-12-10d01t08.flac:d2420419ee6d276c8f7a8bb5e49a9e47

length     expanded size    cdr  WAVE problems  fmt   ratio  filename
     6:40.52       70682348 B   ---   --   ---xx   flac  0.4305  bobweir2016-12-10d01t01.flac
     8:31.52       90262748 B   ---   --   ---xx   flac  0.3912  bobweir2016-12-10d01t02.flac
     5:19.04       56281052 B   ---   --   ---xx   flac  0.4478  bobweir2016-12-10d01t03.flac
     5:48.38       61476620 B   ---   --   ---xx   flac  0.4213  bobweir2016-12-10d01t04.flac
    12:18.38      130272620 B   ---   --   ---xx   flac  0.4737  bobweir2016-12-10d01t05.flac
    16:27.55      174236204 B   ---   --   ---xx   flac  0.4863  bobweir2016-12-10d01t06.flac
    10:11.72      107949788 B   ---   --   ---xx   flac  0.5419  bobweir2016-12-10d01t07.flac
     5:39.20       59846684 B   ---   --   ---xx   flac  0.3959  bobweir2016-12-10d01t08.flac
    70:57.31      751008064 B                            0.4600  (8 files)







More information about the bittorrent mailing list