[bittorrent] Gov't Mule And Friends Asheville Civic Center Aheville, North Carolina 12/10/2016 (Schoeps CCM4V'S FOB)

Automated Mailer noreply-bt.e at etree.org
Sun Dec 11 10:04:05 UTC 2016


Band:           Govt Mule
Torrent Name:   Gov't Mule And Friends Asheville Civic Center Aheville, North Carolina 12/10/2016 (Schoeps CCM4V'S FOB)
Uploaded by:    zmanatl
DB Link:        
Details:        http://bt.etree.org/details.php?id=590241

Contact the seeder at http://db.etree.org/zmanatl

If the link to this show does not work, it was probably removed for
being non-trade-friendly.

Description / text file:
-------------------------
Gov't Mule And Friends
Warren Haynes Christmas Jam
Asheville Civic Center
Asheville, North Carolina
12/10/2016 

Source: Schoeps CCM4V's>Lunatec V2>Benchmark AD2K>
Sound Devices 722 (24/44)
FOB/DFC/KFC/ZFC/AARP 37' From Stage, 6' High
DSP: Sound Devices 722>Sound Forge 10.0>CD Wave>flac(16)
ID3 Tagged In Foobar 2000
Recorded By: Z-Man
Seeded By: Z-Man

Disc I 

01 Warren Greeting
02 Mule 
03 *#@32-20 Blues
04 $%Sco-Mule
05 &+!^Dreams >
06 &+!^Mountain Jam >
07 &+!Drum Solo >
08 &+!^Mountain Jam
09 Band Introductions

Warren Haynes - Guitar And Vocals 
Jorgen Carlsson - Bass
Danny Louis - Keyboards And Vocals
Tony Caldwin - Drums

* Mike Barnes On Guitar
# With Smokey Greenwell On Harmonica
@ With Marcus King On Guitar
^ With Branford Marcellous On Saxophone
$ With Jeff Sipe On Drums
% With Steve Kimock On Guitar And Lap Steel
& With Paul Riddle On Drums
+ With Duane Trucks On Drums
! With Count M'Butu On Percussion

Lucky Lindsley - Drums

govtmule2016-12-10d01t01.flac:8b52591615b0ff5c0fe06678b8453d4f
govtmule2016-12-10d01t02.flac:475f41fe2d3e00eb2f89d35c68e8aff5
govtmule2016-12-10d01t03.flac:b08a7966a180868082cf909d72fd03f8
govtmule2016-12-10d01t04.flac:194667020031896e4c562be47e688a67
govtmule2016-12-10d01t05.flac:ca479f9ab45371cb08e1547a1f833fdf
govtmule2016-12-10d01t06.flac:9af27199ac12ac8d7190ab03495f4e55
govtmule2016-12-10d01t07.flac:728350f1e09b059d886b5d6599e8df48
govtmule2016-12-10d01t08.flac:c2c33a870c14a3a4340d8924241aba81
govtmule2016-12-10d01t09.flac:d62ebf6edceab7b2067e7d7cbbead9b2

 length     expanded size    cdr  WAVE problems  fmt   ratio  filename
     2:26.34       25834412 B   ---   --   ---xx   flac  0.3419  govtmule2016-12-10d01t01.flac
     7:37.41       80711276 B   ---   --   ---xx   flac  0.4988  govtmule2016-12-10d01t02.flac
    10:08.50      107368844 B   ---   --   ---xx   flac  0.4675  govtmule2016-12-10d01t03.flac
    13:56.21      147519836 B   ---   --   ---xx   flac  0.5155  govtmule2016-12-10d01t04.flac
     9:48.64      103873772 B   ---   --   ---xx   flac  0.4993  govtmule2016-12-10d01t05.flac
    11:20.64      120102572 B   ---   --   ---xx   flac  0.5313  govtmule2016-12-10d01t06.flac
     2:07.60       22543964 B   ---   --   ---xx   flac  0.4989  govtmule2016-12-10d01t07.flac
     2:13.21       23510636 B   ---   --   ---xx   flac  0.5376  govtmule2016-12-10d01t08.flac
     1:19.35       14017964 B   ---   --   ---xx   flac  0.4364  govtmule2016-12-10d01t09.flac
    60:59.15      645483276 B                            0.4973  (9 files)













More information about the bittorrent mailing list