[bittorrent] gd1984-04-13.137367.set2.mk41.miller.flac24

Automated Mailer noreply-bt.e at etree.org
Sat Dec 10 23:39:27 UTC 2016


Band:           Grateful Dead
Torrent Name:   gd1984-04-13.137367.set2.mk41.miller.flac24
Uploaded by:    greendude
DB Link:        
Details:        http://bt.etree.org/details.php?id=590237

Contact the seeder at http://db.etree.org/greendude

If the link to this show does not work, it was probably removed for
being non-trade-friendly.

Description / text file:
-------------------------
Grateful Dead - April 13, 1984
Hampton Coliseum  - Hampton, VA

Recording Info:
(FOB) Schoeps CMC4/MK41 > Oade M118 > Cassette Master (Sony WM-D6C/Dennon DXM-90)

Transfer Info:
Cassette Master (Nakamichi DR-1) > Tascam DA-3000 (DSF 1-bit/5.8 MHz) >
KORG AudioGate 4 > Adobe Audition CC 2015 > Samplitude Pro X3 Suite > FLAC/24
(1 Disc FLAC)

Notes:
-- Two masters were used to make this complete
-- Recorded By Robert Bryant (patched out of the Oade brothers)
-- Thanks to Joe B. Jones for his help with the pitch correction

Set 2:
01 - Scarlet Begonias >
02 - Fire On The Mountain
03 - Estimated Prophet >
04 - Drums >
05 - Space >
06 - The Wheel >
07 - Truckin' >
08 - Goin' Down The Road Feeling Bad >
09 - Around And Around >
10 - Good Lovin'


SHNTOOL OUTPUT:
    length     expanded size    cdr  WAVE problems  fmt   ratio  filename
    12:39.447     437441426 B   cxx   --   ---xx   flac  0.7008  01 Scarlet Begonias.flac
    11:30.316     397622120 B   cxx   --   ---xx   flac  0.7009  02 Fire On The Mountain.flac
    15:33.547     537722906 B   cxx   --   ---xx   flac  0.6984  03 Estimated Prophet.flac
     6:41.264     231128168 B   cxx   --   ---xx   flac  0.6593  04 Drums.flac
    10:00.547     345915362 B   cxx   --   ---xx   flac  0.6661  05 Space.flac
     5:40.027     195855482 B   cxx   --   ---xx   flac  0.6986  06 The Wheel.flac
     6:16.294     216745352 B   cxx   --   ---xx   flac  0.7117  07 Truckin'.flac
     5:16.424     182260364 B   cxx   --   ---xx   flac  0.7076  08 Goin' Down The Road Feeling Bad.flac
     3:45.657     129978512 B   cxx   --   ---xx   flac  0.7018  09 Around And Around.flac
     7:46.716     268828742 B   cxx   --   ---xx   flac  0.7112  10 Good Lovin'.flac
    85:10.240    2943498434 B                            0.6951  (10 files)




More information about the bittorrent mailing list